#VERSION:0.83;
#TITLE:ECSTASY;
#SUBTITLE:;
#ARTIST:d-complex;
#TITLETRANSLIT:;
#SUBTITLETRANSLIT:;
#ARTISTTRANSLIT:;
#GENRE:;
#ORIGIN:;
#CREDIT:;
#BANNER:ECSTASY.png;
#BACKGROUND:ECSTASY-bg.png;
#PREVIEWVID:;
#JACKET:ECSTASY-jacket.png;
#CDIMAGE:;
#DISCIMAGE:;
#LYRICSPATH:;
#CDTITLE:CDTitle.png;
#MUSIC:ECSTASY.ogg;
#OFFSET:0.000000;
#SAMPLESTART:14.870000;
#SAMPLELENGTH:15.000000;
#SELECTABLE:YES;
#DISPLAYBPM:145.000000;
#BPMS:0.000=145.749,
4.000=145.259,
100.000=140.187,
105.000=136.364,
106.000=130.435,
107.000=125.000,
108.000=120.000,
109.000=145.278,
189.000=136.364,
190.000=150.313;
#STOPS:100.000=2.933,
189.000=6.287;
#DELAYS:;
#WARPS:;
#TIMESIGNATURES:0.000=4=4;
#TICKCOUNTS:0.000=4;
#COMBOS:0.000=1;
#SPEEDS:0.000=1.000=0.000=0;
#SCROLLS:0.000=1.000;
#FAKES:;
#LABELS:0.000=Song Start;
#BGCHANGES:;
#KEYSOUNDS:;
#ATTACKS:
;

//---------------dance-single - ----------------
#NOTEDATA:;
#CHARTNAME:;
#STEPSTYPE:dance-single;
#DESCRIPTION:;
#CHARTSTYLE:;
#DIFFICULTY:Hard;
#METER:14;
#RADARVALUES:0.478452,0.777817,0.027987,0.195912,0.335849,359.000000,356.000000,3.000000,21.000000,0.000000,0.000000,0.000000,0.000000,0.000000,0.478452,0.777817,0.027987,0.195912,0.335849,359.000000,356.000000,3.000000,21.000000,0.000000,0.000000,0.000000,0.000000,0.000000;
#CREDIT:Pandemonium X;
#DISPLAYBPM:145.000000;
#NOTES:
0000
0000
0000
0000
,
0000
0000
0000
0000
,
0000
0000
0000
0000
,
0000
0000
0000
0000
,
0000
0000
0000
0000
,
1000
0000
0000
1000
0000
0000
0001
0000
0000
0000
0000
0000
0000
0010
0000
0000
,
0100
0000
0000
0100
0000
0000
1000
0000
0000
0000
0100
0000
0000
0010
0000
0000
,
0001
0000
0000
0001
0000
0000
1000
0000
0000
0000
0000
0000
0000
0001
0000
0000
,
0100
0010
2000
0002
0000
0000
3003
0000
,
1000
0100
0001
0100
1000
0010
0100
0001
,
0010
0000
1000
0000
0010
0000
0001
0000
0100
0010
0000
0010
0000
0000
0000
0000
,
0100
0001
0010
0001
1000
0100
0010
0001
,
1000
0000
0010
0000
1000
0000
0001
0000
1000
0100
0000
0100
0000
0000
0100
0000
,
1000
0001
0010
1000
0010
0001
0100
0010
,
1000
0000
0100
0000
0001
0000
0100
0000
1000
0001
0000
0001
0000
0000
0000
0000
,
0100
0001
0010
0001
1000
0100
0010
0001
,
1000
0000
0010
0000
1000
0000
0100
0000
1000
0010
0000
0010
0100
0001
0100
0001
,
0200
0000
1300
0200
0000
0001
0000
0010
,
0000
0301
0010
2000
0000
3010
0001
1000
,
2010
0000
3001
0200
0000
1000
0000
0010
,
0000
0310
1000
0002
0000
1003
0100
0010
,
0001
0010
0100
1000
0001
0100
0010
1000
,
0001
0010
0100
1000
0001
1000
0010
1000
,
0100
1000
0100
0000
1000
0010
1000
0000
0010
0100
0010
0000
0100
0001
0100
0000
,
0001
1000
0001
1000
0001
1000
0001
1000
0010
0100
0010
0100
0010
0100
0010
0100
,
0020
0200
0000
0000
,
0000
0030
0002
0000
0000
0000
0000
0000
,
0000
0303
1010
0000
1000
0001
0010
1000
,
0010
0001
1000
0010
0100
0001
0000
0010
,
0100
1000
0001
1000
0100
0001
0100
1000
,
0010
1000
0000
0001
1000
0010
0000
0100
,
0001
1000
0001
1000
0001
0000
0010
0000
1000
0000
0010
0000
0001
0000
0100
0000
,
0010
1000
0001
0010
0100
1000
0100
0010
,
0100
1000
0001
0010
1000
0010
0001
0010
,
0100
1000
0001
0100
0010
1000
0001
0010
,
0100
0010
0002
0000
0103
2000
0000
3100
,
0002
1000
0000
0000
0000
0000
1000
0000
0000
0000
0000
0000
0000
0000
1000
0000
,
0000
0000
0000
1000
0000
0000
0000
0000
0000
1000
0000
0000
0000
0000
0000
0000
,
0000
0203
0000
0020
,
0300
0000
0000
0000
1030
0000
0000
1000
0000
0000
0010
0000
0000
0000
0000
0000
,
0000
0100
0000
0000
0010
0000
0000
0010
0000
0000
0100
0000
0000
0000
0010
0000
,
0000
1000
0000
0000
0001
0000
0000
0001
0000
0000
0010
0000
0000
0000
0000
0000
,
0000
0001
0000
0000
1000
0000
0000
1000
0000
0000
0100
0000
0000
0000
1000
0000
,
0000
0001
0000
0000
0010
0001
0010
0000
0010
0001
0010
0000
0010
0001
0010
0000
,
0010
0001
0010
0000
0001
1000
0001
0000
0001
1000
0001
0000
0001
1000
0001
0000
,
0001
1000
0001
0000
1000
0010
1000
0000
1000
0010
1000
0000
1000
0010
1000
0000
,
1000
0010
1000
0000
0010
0100
0010
0000
0010
0100
0010
0000
0010
0100
0000
0001
,
1000
0000
0000
0000
0000
0000
0000
0000
0000
0000
0000
0000
0000
0000
0000
0000
0000
0000
0000
0000
0000
0000
0000
0000
0010
0000
0000
0000
0000
0000
0000
0000
0000
0000
0000
0000
0000
0000
0000
0000
0000
0000
0000
0000
0000
0000
0000
0000
2002
3003
0000
0000
0000
0000
0000
0000
0000
0000
0000
0000
0000
0000
0000
0000
0000
0000
0000
0000
0000
0000
0000
0000
0000
0000
0000
0000
0000
0000
0000
0000
0000
0000
0000
0000
0000
0000
0000
0000
0000
0000
0000
0000
0000
0000
0000
0000
1000
0000
0000
0000
0000
0000
0000
0000
0000
0000
0000
0000
0000
0000
0000
0000
0000
0000
0000
0000
0000
0000
0000
0000
0000
0000
0000
0000
0000
0000
0000
0000
0000
0000
0000
0000
0100
0000
0000
0000
0000
0000
0000
0000
0000
0000
0000
0000
0000
0000
0000
0000
0000
0000
0000
0000
0000
0000
0000
0000
0000
0000
0000
0000
0000
0000
0000
0000
0000
0000
0000
0000
1000
0000
0000
0000
0000
0000
0000
0000
0000
0000
0000
0000
0000
0000
0000
0000
0000
0000
0000
0000
0000
0000
0000
0000
,
0000
0001
0000
0000
0100
0000
0010
0000
1000
0000
0000
0001
0000
0000
0010
0000
,
0000
0001
0000
0000
1000
0000
0100
0000
0010
0000
0000
0010
0000
0000
0100
0000
,
1000
0000
0000
0000
0010
0000
0000
0000
0100
0000
0000
0100
0000
0000
0010
0000
,
0000
0000
1000
0000
0000
0001
0000
0000
0010
0000
0100
0000
1000
0000
0010
0000
,
0100
0001
0010
1000
0010
0001
0100
0010
,
1000
0001
0010
0001
1000
0100
0001
0100
,
1000
0000
0010
0000
0100
0000
0001
0000
1000
0001
1000
0001
1000
0001
1000
0001
,
1000
0001
1000
0001
1000
0001
1000
0001
2000
0000
0000
0000
0000
0000
3002
0000
,
0000
0020
0000
0000
,
0000
0000
0033
0000
;

//---------------dance-single - ----------------
#NOTEDATA:;
#CHARTNAME:;
#STEPSTYPE:dance-single;
#DESCRIPTION:;
#CHARTSTYLE:;
#DIFFICULTY:Medium;
#METER:9;
#RADARVALUES:0.334516,0.429141,0.158595,0.130608,0.102621,251.000000,234.000000,17.000000,14.000000,0.000000,0.000000,0.000000,0.000000,0.000000,0.334516,0.429141,0.158595,0.130608,0.102621,251.000000,234.000000,17.000000,14.000000,0.000000,0.000000,0.000000,0.000000,0.000000;
#CREDIT:;
#DISPLAYBPM:145.000000;
#NOTES:
0000
0000
0000
0000
,
0000
0000
0000
0000
,
0000
0000
0000
0000
,
0000
0000
0000
0000
,
0000
0000
0000
0000
,
1000
0000
0000
1000
0000
0000
0001
0000
0000
0000
0000
0000
0000
0010
0000
0000
,
0100
0000
0000
0100
0000
0000
1000
0000
0000
0000
0100
0000
0000
0100
0000
0000
,
0010
0000
0000
0010
0000
0000
0001
0000
0000
0000
0000
0000
0000
0010
0000
0000
,
0001
0100
0010
2000
0000
0000
3000
0000
,
0010
0000
1000
0010
0000
0100
0000
0001
,
0000
0010
1000
0010
0000
1000
0010
0001
,
1000
0000
0001
1000
0000
0001
0000
0100
,
0000
1000
0100
1000
0000
1000
0100
0001
,
1001
0000
1000
0010
0000
1000
0000
0001
,
0000
0010
0100
1000
0000
1000
0100
0001
,
0100
0000
0010
0001
0000
1000
0000
0010
,
0000
0100
0001
0010
0000
1000
0010
0001
,
1001
0000
0001
0100
0000
1100
0000
0101
,
0000
0001
0100
0010
0000
1000
0010
0100
,
0001
0000
0001
0010
0000
0110
0000
0011
,
0000
0001
0010
0100
0000
0010
0001
0100
,
0110
0000
0010
1000
0000
1001
0000
0110
,
0000
1000
0100
0010
0000
0100
1000
0010
,
0100
0000
0010
0100
0000
1010
0000
0101
,
0002
0000
0020
0000
,
0033
0000
0000
0000
,
0000
0000
0000
0000
,
0000
0000
1001
0000
0100
0010
0000
0100
,
0000
0010
0000
1000
0100
0010
0000
0100
,
1000
0010
0100
0000
0010
0100
0000
0001
,
0000
0010
0000
0100
0010
0001
0000
0010
,
0002
0000
1003
0100
1000
0000
0010
1000
,
0010
1000
0010
0100
,
0001
0000
0010
0001
0010
0000
0001
0010
,
0001
0010
0001
0100
,
0010
0000
2000
0000
0000
3002
0000
0000
,
0203
0000
0000
0000
,
0000
0000
0000
0000
,
0300
0020
0000
0200
,
0330
0000
0000
0000
0010
0000
0000
0010
0000
0000
1000
0000
0000
0000
0000
0000
,
0000
1000
0000
0000
0001
0000
0000
0001
0000
0000
0010
0000
0000
0000
0100
0000
,
0000
0100
0000
0000
0010
0000
0000
0010
0000
0000
0001
0000
0000
0000
0000
0000
,
0000
0001
0000
0000
1000
0000
0000
1000
0000
0000
0001
0000
0000
0000
0010
0000
,
0000
0001
0000
0000
1000
0000
0010
0000
0100
0000
0000
0000
0010
0000
0100
0000
,
0001
0000
1000
0100
0010
0000
0100
1000
,
0001
0000
0010
0001
0100
0000
0010
0100
,
0001
0000
0000
0000
1000
0000
0010
0000
0100
0000
0000
0000
0001
1000
0000
0001
,
0000
1000
2002
3003
0110
0000
0000
0000
,
1000
1000
1000
0000
0110
0000
0000
0000
,
0001
0000
0001
0000
0001
0000
0000
0000
1000
0000
0000
0010
0000
0000
1000
0000
,
0000
0000
0000
0000
0000
1000
0000
0000
0100
0000
0000
0010
0000
0000
0100
0000
,
0000
0000
0100
0000
0000
0010
0000
0000
0001
0000
0100
0000
0010
0000
0000
0000
,
0100
0000
1010
0000
1000
0010
0100
0000
,
0010
0000
1100
0000
0001
0010
0100
0000
,
0100
0010
0001
0000
1000
0001
0100
0000
,
1000
0001
0000
0001
0000
0000
0001
0000
2000
0000
0000
0000
0000
0000
3020
0000
,
0000
0200
0000
0000
,
0000
0000
0330
0000
;

//---------------dance-single - ----------------
#NOTEDATA:;
#CHARTNAME:;
#STEPSTYPE:dance-single;
#DESCRIPTION:;
#CHARTSTYLE:;
#DIFFICULTY:Easy;
#METER:6;
#RADARVALUES:0.221234,0.321855,0.121279,0.177254,0.000000,166.000000,153.000000,13.000000,19.000000,0.000000,0.000000,0.000000,0.000000,0.000000,0.221234,0.321855,0.121279,0.177254,0.000000,166.000000,153.000000,13.000000,19.000000,0.000000,0.000000,0.000000,0.000000,0.000000;
#CREDIT:;
#DISPLAYBPM:145.000000;
#NOTES:
0000
0000
0000
0000
,
0000
0000
0000
0000
,
0000
0000
0000
0000
,
0000
0000
0000
0000
,
0000
0000
0000
0000
,
1000
0001
0010
0000
,
0100
0010
0001
1000
,
0010
1000
0100
0000
,
0020
0000
0000
0002
0000
0000
0033
0000
,
0100
1000
0010
1000
,
0001
0100
0010
1001
,
1000
0001
0010
0001
,
0100
0000
0010
0000
1000
0000
0001
1000
,
0001
0010
0001
1000
,
0100
0010
0100
1001
,
1000
0001
0010
0001
,
1000
0000
0010
0000
0100
0000
0010
1000
,
0010
1000
0001
0010
,
0100
0010
0001
1100
,
0100
1000
0010
0100
,
0010
0000
1000
0000
0010
0000
1000
0001
,
0200
0000
0000
0302
0000
0000
0010
0000
,
0000
0010
0000
0010
,
0000
0010
0000
0010
,
0023
0000
0230
0000
,
1300
0000
0000
0000
,
0000
0000
0000
0000
,
0000
1001
0000
0001
,
0000
1000
0001
0100
,
0000
0010
0000
1000
,
0000
0100
1000
0010
,
0200
0301
0010
0001
,
1000
0100
0010
0001
,
1000
0001
0100
0010
,
1000
0010
0100
0001
,
1000
0000
0020
0000
0000
2030
0000
0000
,
3200
0000
0000
0000
,
0000
0000
0000
0000
,
0300
0020
0000
0200
,
0330
1001
0000
0000
,
0000
0101
0000
0000
,
0000
0011
0000
0000
,
0000
1100
0000
0000
,
0000
1020
1000
1000
,
1030
0102
0100
0100
,
0103
0012
0010
0010
,
0013
2100
0100
0100
,
3100
1001
0010
0000
,
0000
0000
0010
0000
,
0000
0000
0100
0010
,
1000
0000
0001
0010
,
0100
0000
0010
0001
,
1000
0010
1000
0001
,
0100
0010
1000
0001
,
0100
0010
1000
0001
,
0100
0000
0010
0000
2000
0000
0000
3002
,
0000
2000
0000
0000
,
0000
0000
3003
0000
;

//---------------dance-single - ----------------
#NOTEDATA:;
#CHARTNAME:;
#STEPSTYPE:dance-single;
#DESCRIPTION:;
#CHARTSTYLE:;
#DIFFICULTY:Beginner;
#METER:3;
#RADARVALUES:0.087960,0.160928,0.046646,0.093291,0.000000,66.000000,61.000000,5.000000,10.000000,0.000000,0.000000,0.000000,0.000000,0.000000,0.087960,0.160928,0.046646,0.093291,0.000000,66.000000,61.000000,5.000000,10.000000,0.000000,0.000000,0.000000,0.000000,0.000000;
#CREDIT:;
#DISPLAYBPM:145.000000;
#NOTES:
0000
0000
0000
0000
,
0000
0000
0000
0000
,
0000
0000
0000
0000
,
0000
0000
0000
0000
,
0000
0000
0000
0000
,
0010
0000
0000
0000
,
1000
0000
0000
0000
,
0100
0000
0000
0000
,
0020
0000
0030
0000
,
0001
0000
0000
0000
,
1000
0000
0000
0010
,
1000
0000
0000
0000
,
0100
0000
0000
0010
,
0100
0000
0000
0000
,
0010
0000
0000
0001
,
0100
0000
0000
0000
,
0010
0000
0000
1000
,
1001
0000
0000
0000
,
0001
0000
0000
0010
,
0100
0000
0000
0000
,
1000
0000
0000
0000
,
0020
0000
0000
0000
,
0000
0000
0000
0030
,
0100
0000
0010
0000
,
2000
3000
0002
0003
,
0110
0000
0000
0000
,
0000
0000
0000
0000
,
0000
1001
0000
0000
,
0000
1000
0000
0000
,
0000
0010
0000
0000
,
0000
0100
0000
0000
,
0001
1000
0000
0001
,
0000
1000
0000
0000
,
0000
0010
0000
0100
,
0000
0010
0000
0000
,
0000
2000
0000
0000
,
0000
0000
0000
0000
,
3000
0000
0000
0000
,
0000
0002
0003
0020
,
0030
0100
0000
0000
,
0000
0010
0000
0000
,
0000
0001
0000
0000
,
0000
1000
0000
0000
,
0000
0010
0000
0000
,
0000
1000
0000
0000
,
0000
0100
0000
0000
,
0000
0010
0000
0001
,
0000
1001
0010
0000
,
0000
0000
0010
0000
,
0000
0000
0100
0000
,
0000
0000
0001
0000
,
0000
0000
2000
0000
,
0000
0000
3001
0000
,
0000
0000
0100
0000
,
0000
0000
0010
0000
,
0100
0000
2002
0000
,
0000
0000
0000
0000
,
0000
0000
3003
0000
;
