#TITLE:Digital Signage;
#SUBTITLE:;
#ARTIST:円湯(Maroyu);
#TITLETRANSLIT:;
#SUBTITLETRANSLIT:;
#ARTISTTRANSLIT:;
#GENRE:;
#CREDIT:;
#BANNER:banner.png;
#BACKGROUND:;
#LYRICSPATH:;
#CDTITLE:;
#MUSIC:Digital Signage.ogg;
#OFFSET:-0.077000;
#SAMPLESTART:93.338348;
#SAMPLELENGTH:15.238098;
#SELECTABLE:YES;
#BPMS:0.000000=125.999992
;
#STOPS:
;
#BGCHANGES:;
#KEYSOUNDS:;
#ATTACKS:;

//---------------dance-single - ----------------
#NOTES:
     dance-single:
     :
     Hard:
     11:
     0.432988,0.470258,0.316019,0.423753,0.086187,422.000000,378.000000,44.000000,59.000000,0.000000,0.000000,0.432988,0.470258,0.316019,0.423753,0.086187,422.000000,378.000000,44.000000,59.000000,0.000000,0.000000:
// measure 0
0000
0000
0000
0000
,  // measure 1
0000
0000
0000
0000
,  // measure 2
0000
0000
0000
0000
,  // measure 3
0000
0000
0000
0000
,  // measure 4
0000
0000
0000
0000
,  // measure 5
0001
0000
0000
0001
0000
0000
0001
0000
0010
0000
0000
0100
0000
0000
1000
0000
,  // measure 6
0010
0000
0000
0010
0000
0000
0010
0000
0100
0000
0000
0100
0001
0000
0000
0100
,  // measure 7
0001
0000
0000
0001
0000
0000
0001
0000
0100
0000
0000
0010
0100
0000
0010
0000
,  // measure 8
0100
1000
0100
0001
1000
0000
1001
0000
,  // measure 9
1000
0001
0000
0001
0100
1000
0000
0001
,  // measure 10
0100
1000
0000
0001
0100
1000
0000
0001
,  // measure 11
0101
0011
1010
1100
,  // measure 12
1001
1000
0002
0000
0013
0000
1001
0000
,  // measure 13
1000
0100
0000
1000
0100
0001
0100
1000
,  // measure 14
1100
0110
0011
0101
,  // measure 15
1001
1010
0101
1001
,  // measure 16
0001
1000
0100
0100
0010
0000
0100
0000
,  // measure 17
1000
0100
0010
0001
0100
0010
1000
0001
,  // measure 18
1000
0100
0010
0001
0100
0010
1000
0001
,  // measure 19
0000
0000
1000
1010
0000
0000
0001
0011
,  // measure 20
0001
0010
0002
0000
0013
0000
1001
0000
,  // measure 21
1000
0100
0000
1000
0010
0200
0000
0310
,  // measure 22
1000
0002
0000
0013
0100
2000
0000
3100
,  // measure 23
0010
0200
0000
0310
0001
0020
0000
0031
,  // measure 24
0100
0010
1000
0100
0010
0010
0010
0000
,  // measure 25
1001
0000
0000
1000
0000
0000
1000
0000
0100
0000
0000
0100
0000
0000
0100
0000
,  // measure 26
0010
0000
0000
0010
0000
0000
0010
0000
0001
0000
0000
0001
1000
0000
0000
0001
,  // measure 27
1000
0000
0000
1000
0000
0000
1000
0000
0010
0000
0000
0010
0100
0000
0100
0000
,  // measure 28
0010
1000
0100
0000
0010
0000
0100
0000
,  // measure 29
0010
0000
0000
0010
0000
0000
0010
0000
0100
0000
0000
0100
0000
0000
0100
0000
,  // measure 30
1000
0000
0000
1000
0000
0000
1000
0000
0010
0000
0000
0100
0010
0000
0000
0100
,  // measure 31
0010
0000
0000
0010
0000
0000
0010
0000
0100
0000
0000
0100
0001
0000
0001
0000
,  // measure 32
1000
0000
0000
1000
0000
0000
1000
0000
0000
1000
0000
1000
0001
0000
0000
0000
,  // measure 33
1000
0020
0000
0031
0020
0000
0130
0001
,  // measure 34
2000
3002
2003
3002
,  // measure 35
1003
0200
0000
0301
0200
0000
0310
0001
,  // measure 36
2000
3002
2003
3020
,  // measure 37
0031
0200
0000
1300
0200
0000
0310
1000
,  // measure 38
0200
0320
0230
0320
,  // measure 39
0130
0002
0000
0103
2000
0000
3010
0100
,  // measure 40
0020
0230
0320
2030
,  // measure 41
3001
0200
0000
0310
2000
0000
3100
0010
,  // measure 42
0001
0020
0000
0130
0020
0000
0130
0010
,  // measure 43
0001
0020
0000
0130
0020
0000
0130
0010
,  // measure 44
0001
0100
0020
0000
1030
0000
1001
0000
,  // measure 45
1000
0200
0000
0310
0200
0000
0310
0100
,  // measure 46
1000
0002
0000
0013
0002
0000
0013
0100
,  // measure 47
1000
0001
1000
0001
1000
0001
1000
0001
,  // measure 48
1000
0100
0001
0010
1000
0000
1001
0000
,  // measure 49
1100
0200
0000
1300
0020
0000
0130
0001
,  // measure 50
1000
0020
0000
0130
0002
0000
0013
0100
,  // measure 51
1100
0101
0011
1010
,  // measure 52
1000
0100
2000
0000
3010
0000
1001
0000
,  // measure 53
0001
0020
0000
0031
1000
0100
0001
0100
,  // measure 54
1100
0101
1100
0110
,  // measure 55
0011
1100
0101
1010
,  // measure 56
0001
1000
0010
0010
0100
0000
1001
0000
,  // measure 57
0010
2000
0000
3001
0020
0000
0130
0010
,  // measure 58
0001
2000
0000
3001
0200
0000
0310
1000
,  // measure 59
0100
0010
0001
0101
0000
0000
0010
1010
,  // measure 60
1000
0001
2000
0000
3010
0000
1001
0000
,  // measure 61
1000
0020
0000
0130
0002
0000
0013
0100
,  // measure 62
1000
0020
0000
0130
0002
0000
1003
0100
,  // measure 63
0010
0200
0000
1300
0020
0000
0130
0001
,  // measure 64
1000
0100
0001
0000
0101
0000
1100
0000
,  // measure 65
0010
1001
1000
0010
,  // measure 66
1000
0010
1000
0010
,  // measure 67
0100
0001
0100
0001
,  // measure 68
0100
0001
1001
0110
,  // measure 69
1000
0100
1000
0100
,  // measure 70
0010
0001
0010
0001
,  // measure 71
1000
0001
1000
0001
,  // measure 72
1000
0001
1000
0001
;

//---------------dance-double - ----------------
#NOTES:
     dance-double:
     :
     Hard:
     12:
     0.438118,0.470258,0.280108,0.395024,0.086187,427.000000,388.000000,39.000000,55.000000,0.000000,0.000000,0.438118,0.470258,0.280108,0.395024,0.086187,427.000000,388.000000,39.000000,55.000000,0.000000,0.000000:
00000000
00000000
00000000
00000000
,
00000000
00000000
00000000
00000000
,
00000000
00000000
00000000
00000000
,
00000000
00000000
00000000
00000000
,
00000000
00000000
00000000
00000000
,
10000000
00000000
00000000
10000000
00000000
00000000
10000000
00000000
00100000
00000000
00000000
00100000
00000000
00000000
00100000
00000000
,
01000000
00000000
00000000
01000000
00000000
00000000
01000000
00000000
00010000
00000000
00000000
00100000
00001000
00000000
00000000
00100000
,
00001000
00000000
00000000
00001000
00000000
00000000
00001000
00000000
00010000
00000000
00000000
00010000
00001000
00000000
00010000
00000000
,
00000100
00010000
00001000
01000000
00001000
00000000
00011000
00000000
,
00000100
00010000
00000000
00000100
00010000
00001000
00000000
00001000
,
00100000
00010000
00000000
00100000
00001000
00010000
00000000
00000100
,
00001100
01010000
00001100
01010000
,
01000000
00010000
00200000
00000000
00302000
00000000
00013000
00000000
,
00010000
00000100
00000000
00001000
00000100
00001000
00000010
00001000
,
00001010
00110000
00001010
00110000
,
00101000
00010100
00011000
01001000
,
01000000
00100000
10000000
01000000
00200000
00000000
01300000
00000000
,
00100000
00001000
00010000
00000100
00001000
00000010
00000100
00000001
,
00000010
00000001
00001000
00000100
00010000
00001000
00100000
00001000
,
00010000
00001000
01000000
01100000
00000000
00000000
01000000
10010000
,
10000000
01000000
00200000
00000000
02300000
00000000
13000000
00000000
,
01000000
10000000
00200000
02300000
03010000
00100000
00002000
00023000
,
00030100
00001000
00000020
00000230
00000310
00001000
00000200
00020300
,
00031000
00100000
00002000
00023000
00030100
00001000
00000020
00000230
,
00000301
00000010
00000100
00000000
00000010
00000000
00000010
00000000
,
00001001
00000000
00000000
00000001
00000000
00000000
00000001
00000000
00001000
00000000
00000000
00001000
00000000
00000000
00001000
00000000
,
00000010
00000000
00000000
00000010
00000000
00000000
00000010
00000000
00010000
00000000
00000000
00001000
00010000
00000000
00000000
00001000
,
00010000
00000000
00000000
00010000
00000000
00000000
00010000
00000000
00000100
00000000
00000000
00000100
00010000
00000000
00001000
00000000
,
00100000
10000000
00100000
00000000
01000000
00000000
10000000
00000000
,
00100000
00000000
00000000
00100000
00000000
00000000
00100000
00000000
01000000
00000000
00000000
01000000
00000000
00000000
01000000
00000000
,
00010000
00000000
00000000
00010000
00000000
00000000
00010000
00000000
00100000
00000000
00000000
00001000
00010000
00000000
00000000
00001000
,
00010000
00000000
00000000
00010000
00000000
00000000
00010000
00000000
00000100
00000000
00000000
00001000
00000100
00000000
00001000
00000000
,
00000010
00000000
00000000
00000001
00000000
00000000
00000010
00000000
00000000
00001000
00000000
00000100
00001000
00000000
00000000
00000000
,
00000100
00020000
00000000
00031000
02000000
00000000
03001000
00010000
,
00002000
00010000
00100000
00010000
,
00103000
02000000
00000000
03100000
00020000
00000000
00130000
00001000
,
00020000
00000100
00001000
00030020
,
00010030
00000100
00000000
00000100
00001000
00000000
00000100
00010000
,
00002000
00010000
00100000
00010000
,
00103000
00002000
00000000
00013000
00002000
00000000
00013000
00000100
,
00020000
00000100
00001000
00030020
,
00000130
00000200
00000000
00000301
00000002
00000000
00001003
00000100
,
00000010
00000020
00000000
00000031
00000002
00000000
00001003
00000010
,
00001000
00002000
00000000
00003100
00000200
00000000
00001300
00000100
,
00010000
00100000
10000000
00100000
00010000
00000000
11000000
00000000
,
10000000
20000000
00000000
00100000
30200000
00000000
01300000
00010000
,
00100000
00200000
00000000
00010000
00320000
00000000
10000000
10030000
,
00010000
00100000
00001000
00010000
00000100
00001000
00000010
00000100
,
00000002
00000023
00002030
00003020
00000032
00000203
00000310
00000000
,
00001001
00000001
00000000
00001000
00000010
00000000
00000100
00000010
,
00010000
00001000
00000000
00010000
00001000
00000000
00010000
00000100
,
00001100
01010000
00001100
01010000
,
01000000
00001000
00020000
00000000
00030200
00000000
00001300
00000000
,
00010000
00000100
00000000
00001000
00000010
00000001
00000010
00001000
,
00001010
00001100
00010100
00011000
,
00101000
00011000
00010100
00011000
,
00001000
01000000
00100000
00100000
10000000
00000000
01100000
00000000
,
10010000
10000000
01000000
00100000
02000000
00000000
03100000
00100000
,
01000000
10000000
00010000
00100000
00002000
00000000
00013000
00010000
,
00000100
00000000
00001000
00001001
00000000
00000000
00000010
00000110
,
00000100
00000001
00000010
00000100
00000010
00000000
00001001
00000000
,
00000001
00000200
00000000
00000310
00002000
00000000
00003100
00010000
,
00001000
02000000
00000000
03100000
20000000
00000000
31000000
00100000
,
00010000
00200000
00000000
00301000
00020000
00000000
00030100
00001000
,
00000010
00000001
00000010
00001000
00000001
00000000
00000110
00000000
,
00000100
00001001
00000001
00000100
,
00000010
00001000
00000100
00010000
,
00001000
01000000
00100000
10000000
,
00010000
00000000
10010000
01100000
,
01000000
00010000
00100000
00001000
,
00010000
00000100
00001000
00000010
,
00000100
00000001
00000100
00000001
,
00001000
00000010
00001000
00000010
;

//---------------dance-double - ----------------
#NOTES:
     dance-double:
     :
     Challenge:
     13:
     0.505836,0.600886,0.430935,0.538669,0.186739,493.000000,433.000000,60.000000,75.000000,136.000000,0.000000,0.505836,0.600886,0.430935,0.538669,0.186739,493.000000,433.000000,60.000000,75.000000,136.000000,0.000000:
00000000
00000000
00000000
00000000
,
00000000
00000000
00000000
00000000
,
00000000
00000000
00000000
00000000
,
00000000
00000000
00000000
00000000
,
00000000
00000000
00000000
MMMMMMMM
,
10000000
00000000
00100000
01000000
00000000
00010000
00100000
00000000
01000000
00000000
00100000
00010000
00000000
01000000
00010000
00000000
,
00100000
00000000
00001000
00010000
00000000
00000100
00001000
00000000
00000010
00000000
00000100
00000001
00000010
00000000
00000010
00000001
,
00001000
00000000
00000100
00000010
00000000
00000100
00001000
00000000
00000100
00000000
00010000
00001000
00010000
00000000
00010000
00000000
,
00001000
01000000
10000000
01000000
00010000
00000000
01100000
00000000
,
10000000
11000000
00000000
00010000
00100000
00101000
00000000
00100000
,
00001000
00011000
00000000
00010000
00000100
00001100
00000000
00001000
,
MMMM1010
0011MMMM
MMMM1010
0011MMMM
,
00100000
01000000
10000000
00100000
01000000
00000000
MMMMMMMM
00000000
,
10000000
01000000
00000000
10000000
00100000
01000000
00010000
01000000
,
0101MMMM
MMMM1100
0101MMMM
MMMM1100
,
00011000
00100010
00011000
01000100
,
00001000
00010000
00000100
00001000
00000020
00000000
00000130
00000000
,
00000001
00000001
00000010
00001000
00000010
00000010
00000100
00001000
,
00000100
00000100
00010000
00001000
00010000
00010000
00001000
01000000
,
00100000
00000000
01000000
10010000
00000000
00000000
00100000
10010000
,
10000000
00010000
00100000
00001000
00010000
00000000
MMMMMMMM
00000000
,
00001000
00001000
02000000
03200000
10300000
10000000
02000000
03200000
,
01300000
01000000
00200000
00320000
00130000
00100000
00002000
00023000
,
00030100
00000100
00002000
00003020
00000130
00000100
00000002
00000023
,
00000130
00000100
00000020
00000032
00001003
00000000
00001000
00000000
,
00001001
00000000
00000001
00000100
00000000
00000010
00001000
00000000
00000001
00000000
00001000
00000010
00000000
00000100
00000001
00000000
,
00001000
00000000
00000001
00000100
00000000
00000010
00001000
00000000
00000001
00000000
00001000
00000100
00010000
00000000
00001000
00100000
,
00010000
00000000
10000000
01000000
00000000
00100000
00010000
00000000
10000000
00000000
00010000
01000000
00000000
00100000
10000000
00000000
,
00010000
00100000
00002000
00000000
00013000
00000000
00011000
00000000
,
00000100
00000000
00001000
00000100
00000000
00000010
00000001
00000000
00001000
00000000
00000001
00000100
00000000
00000010
00001000
00000000
,
00000001
00000000
00001000
00000100
00000000
00000010
00000001
00000000
00001000
00000000
00000010
00010000
00001000
00000000
00010000
00001000
,
01000000
00000000
00100000
10000000
00000000
00010000
01000000
00000000
00010000
00000000
00000000
10000000
01000000
00000000
00100000
00000000
,
00010000
00000000
10000000
00100000
00000000
00100000
01000000
00000000
01000000
00010000
00000000
00010000
10000000
00000000
00000000
00000000
,
00100000
20000000
00000000
31000000
00020000
00000000
01030000
00100000
,
00220000
00330000
00022000
00033000
00002200
00003300
00022000
00033000
,
00010000
00200000
00000000
01300000
20000000
00000000
30010000
01000000
,
02020000
03030000
00022000
00033000
02020000
03030000
02200000
03300000
,
01000000
00020000
00000000
00130000
00002000
00000000
00013000
00000100
,
00002200
00003300
00022000
00033000
00002200
00003300
00022000
00033000
,
00010000
00000020
00000000
00000130
00000002
00000000
00001003
00000100
,
00002200
00003300
00022000
00033000
00002200
00003300
00000022
00000033
,
00000001
00000200
00000000
00000010
00000320
00000000
00000130
00000010
,
00001000
00000200
00000000
00010000
00020300
00000000
00030100
00010000
,
00001000
00200000
00000000
00301000
00002000
00000000
00013000
00000100
,
00010000
00001000
01000000
00100000
10000000
00000000
MMMMMMMM
00000000
,
10000000
20000000
00000000
30010000
00200000
00000000
00301000
00010000
,
00000100
00000200
00000000
00001300
00000020
00000000
00000130
00000100
,
00000102
00000013
00000201
00000310
00000102
00000013
00000201
00000310
,
00000001
00000010
00001000
00010000
00100000
10000000
10010000
00000000
,
01100000
00000000
01000000
00010000
00000000
00100000
01000000
00000000
20000000
00000000
00000000
00000000
30010000
00000000
10000000
00000000
,
01000000
00000000
10000000
00100000
00000000
01000000
00010000
00000000
00200000
00000000
00000000
00000000
00310000
00000000
01000000
00000000
,
0101MMMM
MMMM1100
0101MMMM
MMMM1100
,
00010000
00000100
00001000
00000010
00000100
00000000
MMMMMMMM
00000000
,
00000001
00000000
00001000
00000010
00000000
00000100
00000001
00000000
00000010
00000000
00000100
00000000
00001000
00000000
00000100
00000000
,
MMMM1100
0101MMMM
MMMM1100
0101MMMM
,
00011000
01000100
00011000
00100010
,
00010000
00001000
01000000
00100000
10000000
00000000
MMMMMMMM
00000000
,
10000000
00000000
01000000
00100000
00010000
00000000
00100000
00000000
00001000
00000000
00001000
00000000
00010000
00000000
00001000
00000000
,
00010000
00000000
00000100
00001000
00000010
00000000
00000100
00000000
00000001
00000000
00000001
00000000
00000010
00000000
00000100
00000000
,
00000000
00000000
00010000
MMMM1100
00000000
00000000
00001000
0101MMMM
,
01000000
00010000
00100000
00000000
01000000
00000000
MMMMMMMM
00000000
,
10000000
00000000
00010000
01000000
00000000
00010000
00100000
00000000
00002000
00000000
00000000
00000000
00013000
00000000
00000100
00000000
,
00001000
00000000
00000010
00000100
00000000
00000010
00001000
00000000
00000002
00000000
00000000
00000000
00000013
00000000
00000001
00000000
,
00001000
00000000
00000100
00001000
00000000
00000100
00010000
00000000
00002000
00000000
00000000
00000000
01003000
00000000
00010000
00000000
,
00100000
10000000
00100000
00010000
10000000
00000000
MMMMMMMM
00000000
,
01000000
10010000
10000000
01000000
,
00100000
00010000
00100000
00001000
,
00010000
00000100
00001000
00000010
,
00000100
00000000
00001001
00000110
,
00000010
00001000
00000100
00010000
,
00001000
00100000
00010000
01000000
,
00001000
00010000
00001000
00010000
,
00001000
00010000
00001000
00010000
;

//---------------dance-single - ----------------
#NOTES:
     dance-single:
     :
     Challenge:
     13:
     0.505836,0.600886,0.351931,0.466847,0.208285,493.000000,444.000000,49.000000,65.000000,36.000000,0.000000,0.505836,0.600886,0.351931,0.466847,0.208285,493.000000,444.000000,49.000000,65.000000,36.000000,0.000000:
// measure 0
0000
0000
0000
0000
,  // measure 1
0000
0000
0000
0000
,  // measure 2
0000
0000
0000
0000
,  // measure 3
0000
0000
0000
0000
,  // measure 4
0000
0000
0000
MMMM
,  // measure 5
1000
0000
0010
1000
0000
0100
1000
0000
0001
0000
0010
0001
0000
0100
0001
0000
,  // measure 6
1000
0000
0001
0100
0000
0010
1000
0000
0100
0000
0010
0001
0100
0000
0100
0001
,  // measure 7
0010
0000
0100
0010
0000
0001
1000
0000
0010
0000
0100
0010
0100
0000
0100
0000
,  // measure 8
0001
0100
1000
0100
0001
0000
1001
0000
,  // measure 9
1000
1010
0000
0100
0001
0011
0000
0100
,  // measure 10
1000
1010
0000
0100
0001
0011
0000
0010
,  // measure 11
1001
1010
1001
0011
,  // measure 12
0001
0100
1000
0100
0001
0000
MMMM
0000
,  // measure 13
1000
1001
0000
0001
0010
0100
0010
0001
,  // measure 14
0011
1100
0101
1010
,  // measure 15
1001
0110
1001
0110
,  // measure 16
1000
0010
0001
0010
0100
0000
0001
0000
,  // measure 17
1000
0100
0001
0100
1000
0010
0001
0010
,  // measure 18
1000
0100
0001
0100
1000
0010
0001
0010
,  // measure 19
1000
0000
0001
1010
0000
0000
1000
0101
,  // measure 20
0001
0010
1000
0010
0001
0000
MMMM
0000
,  // measure 21
1000
0100
0001
0100
2000
3020
0032
0023
,  // measure 22
1030
0100
0001
0100
1000
0010
0001
0010
,  // measure 23
1000
0100
0001
0100
1000
0010
0001
0010
,  // measure 24
1000
0010
0100
0001
0010
0000
0010
0000
,  // measure 25
1001
0000
1000
0001
0000
1000
0010
0000
1000
0000
0001
1000
0000
0001
0100
0000
,  // measure 26
0001
0000
1000
0100
0000
1000
0001
0000
1000
0000
0001
0100
0010
0000
0010
0100
,  // measure 27
0001
0000
1000
0010
0000
1000
0001
0000
1000
0000
0001
0100
0010
0000
0010
0000
,  // measure 28
0100
0010
1000
0000
0101
0000
1100
0000
,  // measure 29
0001
0000
0010
0001
0000
1000
0100
0000
0010
0000
0100
1000
0000
0001
0010
0000
,  // measure 30
0100
0000
0010
0001
0000
1000
0100
0000
0010
0000
0001
0010
0100
0000
0100
0010
,  // measure 31
0001
0000
1000
0010
0000
0100
0001
0000
1000
0000
0001
0100
0010
0000
1000
0000
,  // measure 32
0001
0000
1000
0001
0000
1000
0100
0000
1000
0010
0000
1000
0001
0000
0000
0000
,  // measure 33
1000
0200
0000
0301
0200
0000
1300
0001
,  // measure 34
2000
3200
0302
0023
,  // measure 35
1030
0200
0000
0301
0200
0000
1300
0001
,  // measure 36
2000
3200
0302
0023
,  // measure 37
1030
0002
0000
0013
0200
0000
0310
0001
,  // measure 38
0002
0203
2300
3020
,  // measure 39
0031
2000
0000
3100
0020
0000
0130
1000
,  // measure 40
0002
0203
2300
3020
,  // measure 41
0031
0000
0001
1000
0000
0010
0100
0000
0002
0000
0000
0000
0013
0000
0100
0000
,  // measure 42
1000
0000
0100
1000
0000
0010
0100
0000
0020
0000
0000
0000
0130
0000
0001
0000
,  // measure 43
1000
0000
0100
1000
0000
0100
0010
0000
0002
0000
0000
0000
0013
0000
0001
0000
,  // measure 44
1000
0010
0001
0010
1000
0000
MMMM
0000
,  // measure 45
0001
0000
1000
0010
0000
0100
0001
0000
0020
0000
0000
0000
0130
0000
1000
0000
,  // measure 46
0010
0000
0100
0001
0000
1000
0100
0000
0020
0000
0000
0000
0130
0000
0010
0000
,  // measure 47
0201
0310
0102
0013
0201
0310
0102
0013
,  // measure 48
2001
3002
0203
2300
3020
0032
1003
0000
,  // measure 49
MMMM
0000
1000
0010
0000
0100
0001
0000
0020
0000
0000
0000
0130
0000
1000
0000
,  // measure 50
0010
0000
0100
0001
0000
0010
0100
0000
0020
0000
0000
0000
0130
0000
1000
0000
,  // measure 51
1010
0101
0011
1010
,  // measure 52
1000
0100
0001
0100
1000
0000
MMMM
0000
,  // measure 53
0001
0000
0010
0001
0000
1000
0100
0000
0010
0000
0100
0000
1000
0000
0010
0000
,  // measure 54
0110
1010
0101
0011
,  // measure 55
1001
0110
1001
0110
,  // measure 56
0010
0010
1000
0001
0010
0000
MMMM
0000
,  // measure 57
0100
0000
0010
0001
2000
0000
0001
0000
3002
0000
0000
0000
0103
0000
0001
0000
,  // measure 58
0010
0000
0100
1000
0020
0000
0100
0000
0230
0000
0000
0000
0310
0000
1000
0000
,  // measure 59
0001
0000
1000
0011
0000
0000
0001
1010
,  // measure 60
1000
0100
0001
0100
1000
0000
MMMM
0000
,  // measure 61
0001
0000
0100
0001
0020
0000
0100
0000
0230
0000
0000
0000
0310
0000
0100
0000
,  // measure 62
1000
0000
0001
1000
0020
0000
0100
0000
0230
0000
0000
0000
0310
0000
1000
0000
,  // measure 63
0100
0000
0010
0100
2000
0000
0001
0000
3002
0000
0000
0000
0013
0000
0100
0000
,  // measure 64
1000
0010
0001
0010
1000
0000
MMMM
0000
,  // measure 65
0001
0000
1001
2000
0000
0000
3001
0200
,  // measure 66
0000
0000
0310
2000
0000
0000
3010
0200
,  // measure 67
0000
0000
0310
2000
0000
0000
3001
2000
,  // measure 68
0000
3000
1001
0110
,  // measure 69
0002
0000
0103
0020
0000
0000
1030
0200
,  // measure 70
0000
0000
0310
0002
0000
0000
1003
0001
,  // measure 71
0100
1001
0010
1001
,  // measure 72
0100
1001
0010
1001
;

//---------------dance-single - ----------------
#NOTES:
     dance-single:
     :
     Medium:
     8:
     0.377582,0.470258,0.366295,0.215468,0.000000,368.000000,317.000000,51.000000,30.000000,0.000000,0.000000,0.377582,0.470258,0.366295,0.215468,0.000000,368.000000,317.000000,51.000000,30.000000,0.000000,0.000000:
// measure 0
0000
0000
0000
0000
,  // measure 1
0000
0000
0000
0000
,  // measure 2
0000
0000
0000
0000
,  // measure 3
0000
0000
0000
0000
,  // measure 4
0000
0000
0000
0000
,  // measure 5
1100
0000
0001
0000
,  // measure 6
0011
0000
0001
0000
,  // measure 7
1010
0000
1000
0000
,  // measure 8
0001
0010
0100
1000
0100
0000
1000
0000
,  // measure 9
0001
0100
0000
0001
1000
0001
0000
1000
,  // measure 10
0001
1000
0000
0001
1000
0001
0000
1000
,  // measure 11
1001
0110
1001
0110
,  // measure 12
1000
0100
0010
0001
0020
0000
0130
0000
,  // measure 13
0010
0100
0000
0010
0100
0010
0001
0100
,  // measure 14
0110
0110
1100
1010
,  // measure 15
0110
0101
0110
1100
,  // measure 16
1000
0100
0010
0001
1000
0000
0001
0000
,  // measure 17
2000
3100
2000
3010
,  // measure 18
2000
0000
3001
0000
2000
0000
3100
0010
,  // measure 19
0000
0000
1000
0010
0000
0000
0100
0001
,  // measure 20
1000
0100
0010
0001
1000
0000
0110
0000
,  // measure 21
1000
0100
0000
1000
0010
0100
0000
0010
,  // measure 22
1000
0001
0000
0010
0100
1000
0000
0100
,  // measure 23
1000
0010
0000
0100
0001
0010
0000
0000
,  // measure 24
0100
0010
0100
1000
0010
0000
0100
0000
,  // measure 25
1002
0000
2003
0000
,  // measure 26
3002
0000
2003
0000
,  // measure 27
3002
0000
2003
0000
,  // measure 28
3001
0010
0100
0000
0010
0000
0001
0000
,  // measure 29
2000
0000
3002
0000
,  // measure 30
2003
0000
3002
0000
,  // measure 31
2003
0000
3002
0000
,  // measure 32
0103
0010
1000
0000
0100
0000
0010
0000
,  // measure 33
0001
0010
0000
0010
0001
0000
1000
0100
,  // measure 34
0110
0110
0110
0110
,  // measure 35
0100
1000
0000
1000
0010
0000
0100
0001
,  // measure 36
1001
1001
1001
1010
,  // measure 37
0001
0100
0000
0001
1000
0000
0100
0010
,  // measure 38
0011
0011
0011
0011
,  // measure 39
0010
0100
0000
0100
0010
0000
0100
1000
,  // measure 40
1100
1100
1100
0011
,  // measure 41
0001
0200
0000
0010
0010
0000
0301
0000
,  // measure 42
1000
0200
0000
0010
0010
0000
1300
0000
,  // measure 43
0100
2000
0000
0001
0001
0000
3010
0000
,  // measure 44
0100
0010
1000
0001
0010
0000
1100
0000
,  // measure 45
0100
2000
0000
0001
0001
0000
3010
0000
,  // measure 46
0100
0002
0000
0010
0010
0000
1003
0000
,  // measure 47
0100
0010
0100
0010
0100
0010
0100
0010
,  // measure 48
0100
0010
0001
1000
0200
0000
1300
0000
,  // measure 49
0011
0000
0001
0000
0100
0000
0010
0100
,  // measure 50
0001
0000
1000
0000
0100
0000
0010
0100
,  // measure 51
1100
0101
1100
0101
,  // measure 52
1000
0100
0010
0001
2000
0000
3010
0000
,  // measure 53
0100
0000
0010
0000
1000
0010
0100
0001
,  // measure 54
0011
0011
1100
1100
,  // measure 55
0101
1100
1010
0011
,  // measure 56
1000
0100
0010
0001
2000
0000
3001
0000
,  // measure 57
0100
0000
0001
0010
0200
0000
1300
0000
,  // measure 58
0100
0000
1000
0010
0200
0000
0301
1000
,  // measure 59
0000
0000
0001
0100
0000
0000
0010
1000
,  // measure 60
0100
0010
0100
1000
0001
0000
0110
0000
,  // measure 61
1000
0010
0200
0000
0001
0000
0310
0000
,  // measure 62
0100
0010
2000
0000
0010
0000
3001
0000
,  // measure 63
0010
0100
2000
0000
0100
0000
3010
0000
,  // measure 64
0100
0010
1000
0001
0010
0000
0100
0000
,  // measure 65
1000
1001
1000
0001
,  // measure 66
1000
0001
1000
0001
,  // measure 67
1000
0001
1000
0001
,  // measure 68
1000
0000
1001
0110
,  // measure 69
0100
0010
0100
0010
,  // measure 70
0100
0010
0100
0010
,  // measure 71
0100
0010
0100
0010
,  // measure 72
0100
0010
0100
0010
;

//---------------dance-single - ----------------
#NOTES:
     dance-single:
     :
     Easy:
     6:
     0.268822,0.470258,0.337566,0.193921,0.000000,262.000000,215.000000,47.000000,27.000000,0.000000,0.000000,0.268822,0.470258,0.337566,0.193921,0.000000,262.000000,215.000000,47.000000,27.000000,0.000000,0.000000:
// measure 0
0000
0000
0000
0000
,  // measure 1
0000
0000
0000
0000
,  // measure 2
0000
0000
0000
0000
,  // measure 3
0000
0000
0000
0000
,  // measure 4
0000
0000
0000
0000
,  // measure 5
1010
0000
0001
0000
,  // measure 6
1010
0000
0001
0000
,  // measure 7
1010
0000
0001
0000
,  // measure 8
1000
0001
0010
0100
,  // measure 9
1001
0000
0001
0000
,  // measure 10
0010
0000
0100
0000
,  // measure 11
1100
1100
0101
0101
,  // measure 12
1100
0101
1100
1001
,  // measure 13
0001
0000
1000
0001
,  // measure 14
0011
0011
1100
1100
,  // measure 15
1010
1010
0101
0101
,  // measure 16
0001
1000
0010
1000
,  // measure 17
0200
1300
0200
0310
,  // measure 18
0002
0013
0002
0103
,  // measure 19
0010
0000
1000
0001
0000
0000
0001
1000
,  // measure 20
0001
1000
0100
0110
,  // measure 21
2000
3001
0020
0130
,  // measure 22
2000
3100
0020
0031
,  // measure 23
0200
0310
2000
3001
,  // measure 24
1000
0100
0001
0001
,  // measure 25
1100
0000
0100
0000
,  // measure 26
1000
0000
0010
0000
,  // measure 27
0100
0000
0001
0000
,  // measure 28
1000
0001
0100
0001
,  // measure 29
0010
0000
0001
0000
,  // measure 30
1000
0000
0100
0000
,  // measure 31
0010
0000
0100
0000
,  // measure 32
1000
0000
0000
0000
,  // measure 33
1000
0000
0000
0001
0000
0000
1000
0000
,  // measure 34
0010
0010
0010
0010
,  // measure 35
1000
0000
0000
0001
0000
0000
1000
0000
,  // measure 36
0100
0100
0100
0010
,  // measure 37
0001
0000
0000
1000
0000
0000
0001
0000
,  // measure 38
0100
0100
0100
0100
,  // measure 39
0001
0000
0000
1000
0000
0000
0001
0000
,  // measure 40
0010
0010
0010
0100
,  // measure 41
2000
0000
0100
3000
,  // measure 42
0002
0000
0100
0003
,  // measure 43
2000
0000
0010
3000
,  // measure 44
0001
0010
0100
1001
,  // measure 45
0002
0000
0010
0003
,  // measure 46
2000
0000
0010
3000
,  // measure 47
0001
0001
0001
0001
,  // measure 48
1001
0010
1001
0100
,  // measure 49
1001
0001
2000
3000
,  // measure 50
0100
1000
0020
0030
,  // measure 51
1010
1010
0011
0011
,  // measure 52
1010
0011
1010
1001
,  // measure 53
0001
0000
1000
0000
,  // measure 54
1100
1100
0101
0101
,  // measure 55
0011
0011
1010
1010
,  // measure 56
1001
0100
1001
0010
,  // measure 57
1002
1003
0002
0103
,  // measure 58
2000
3100
2000
3010
,  // measure 59
0100
0000
0010
1000
0000
0000
1000
0010
,  // measure 60
0100
0010
1000
1001
,  // measure 61
0002
0013
0200
1300
,  // measure 62
0200
1300
0020
1030
,  // measure 63
0002
0013
0200
1300
,  // measure 64
0100
1000
0010
0100
,  // measure 65
0000
1001
0000
0001
,  // measure 66
0000
1000
0000
0010
,  // measure 67
0000
1000
0000
0001
,  // measure 68
0000
0000
1000
0001
,  // measure 69
1000
0010
0000
1000
,  // measure 70
0000
0100
0000
0010
,  // measure 71
0000
0010
0000
0010
,  // measure 72
0000
0010
0000
0010
;

//---------------dance-single - ----------------
#NOTES:
     dance-single:
     :
     Beginner:
     4:
     0.135437,0.209004,0.071823,0.071823,0.000000,132.000000,122.000000,10.000000,10.000000,0.000000,0.000000,0.135437,0.209004,0.071823,0.071823,0.000000,132.000000,122.000000,10.000000,10.000000,0.000000,0.000000:
// measure 0
0000
0000
0000
0000
,  // measure 1
0000
0000
0000
0000
,  // measure 2
0000
0000
0000
0000
,  // measure 3
0000
0000
0000
0000
,  // measure 4
0000
0000
0000
0000
,  // measure 5
1000
0000
0000
0000
,  // measure 6
1000
0000
0000
0000
,  // measure 7
1000
0000
0000
0000
,  // measure 8
1000
0000
0001
0000
,  // measure 9
1001
0000
0001
0000
,  // measure 10
0001
0000
0001
0000
,  // measure 11
1000
0000
0001
0000
,  // measure 12
0100
0000
0000
0110
,  // measure 13
0010
0000
0000
1000
,  // measure 14
1000
0000
0001
0000
,  // measure 15
0100
0000
0001
0000
,  // measure 16
0010
0010
0010
0000
,  // measure 17
0110
0000
0100
0000
,  // measure 18
1000
0000
0010
0000
,  // measure 19
0100
0001
0000
1000
,  // measure 20
0100
0000
1000
1001
,  // measure 21
0001
0000
1000
0000
,  // measure 22
0010
0000
1000
0000
,  // measure 23
0100
0000
1000
0000
,  // measure 24
0001
0001
0001
0000
,  // measure 25
0110
0000
0000
0000
,  // measure 26
0000
0000
0000
0000
,  // measure 27
0000
0000
0000
0000
,  // measure 28
0000
0000
0000
0000
,  // measure 29
1001
0000
0000
0000
,  // measure 30
0000
0000
0000
0000
,  // measure 31
1000
0000
0000
0000
,  // measure 32
1000
0000
0000
0000
,  // measure 33
0001
0000
1000
0000
,  // measure 34
0020
0000
0000
0030
,  // measure 35
0100
0000
0001
0000
,  // measure 36
2000
0000
0000
3000
,  // measure 37
0100
0000
1000
0000
,  // measure 38
0020
0000
0000
0030
,  // measure 39
0100
0000
0001
0000
,  // measure 40
2000
0000
0000
3000
,  // measure 41
0002
0000
0000
0003
,  // measure 42
0002
0000
0000
0003
,  // measure 43
2000
0000
0000
3000
,  // measure 44
2000
0000
0000
3000
,  // measure 45
0020
0000
0000
0030
,  // measure 46
0020
0000
0000
0030
,  // measure 47
0100
0000
0100
0000
,  // measure 48
0100
0100
0100
0000
,  // measure 49
1001
0000
1000
0000
,  // measure 50
0001
0000
0010
0000
,  // measure 51
0001
0000
1000
0000
,  // measure 52
0010
0100
0010
1001
,  // measure 53
1000
0000
0001
0000
,  // measure 54
0010
0000
0001
0000
,  // measure 55
1000
0000
0100
0000
,  // measure 56
1000
1000
1000
0000
,  // measure 57
0110
0000
0010
0000
,  // measure 58
1000
0000
0001
0000
,  // measure 59
0010
0001
0000
1000
,  // measure 60
0100
0000
1000
0000
,  // measure 61
0010
0000
0100
0000
,  // measure 62
0001
0000
0010
0000
,  // measure 63
0100
0000
0010
0000
,  // measure 64
0001
0001
0001
0000
,  // measure 65
0000
1001
0000
1000
,  // measure 66
0000
1000
0000
1000
,  // measure 67
0000
1000
0000
1000
,  // measure 68
0000
0000
0010
0100
,  // measure 69
0010
1000
0000
0001
,  // measure 70
0000
0001
0000
0001
,  // measure 71
0000
0001
0000
0001
,  // measure 72
0000
0001
0000
0001
;
