#TITLE:Dauber;
#SUBTITLE:;
#ARTIST:Drinks On Me;
#TITLETRANSLIT:;
#SUBTITLETRANSLIT:;
#ARTISTTRANSLIT:;
#GENRE:;
#CREDIT:;
#BANNER:Dauber.png;
#BACKGROUND:Dauber-bg.png;
#LYRICSPATH:;
#CDTITLE:;
#MUSIC:Dauber.ogg;
#OFFSET:-0.001000;
#SAMPLESTART:42.634666;
#SAMPLELENGTH:14.222221;
#SELECTABLE:YES;
#BPMS:0.000000=135.000000
;
#STOPS:156.000000=0.889000,
186.000000=0.889000,
216.000000=0.889000
;
#BGCHANGES:;
#KEYSOUNDS:;
#ATTACKS:;

//---------------dance-single - ----------------
#NOTES:
     dance-single:
     :
     Hard:
     12:
     0.387319,0.546620,0.218648,0.306107,0.227394,310.000000,285.000000,25.000000,35.000000,0.000000,0.000000,0.387319,0.546620,0.218648,0.306107,0.227394,310.000000,285.000000,25.000000,35.000000,0.000000,0.000000:
// measure 0
0000
0000
0000
0000
,  // measure 1
0000
0000
0000
0000
,  // measure 2
0000
0000
0000
0000
,  // measure 3
0000
0000
0000
0000
,  // measure 4
0000
0000
0000
0000
,  // measure 5
0000
0000
0000
0000
,  // measure 6
0000
0000
0000
0000
,  // measure 7
0000
0000
0000
0000
,  // measure 8
0201
0000
0000
0000
0000
0000
0000
0000
0301
0000
0000
0010
0000
0000
0001
0000
,  // measure 9
2000
0000
0000
0000
0000
0000
0000
0000
3100
0000
0000
1000
0000
0000
0010
0000
,  // measure 10
2000
0000
0000
0000
0000
3010
0000
0100
,  // measure 11
0020
0000
0000
2030
0000
3002
0000
0013
,  // measure 12
0002
0000
0000
0000
0000
0000
0000
0000
1003
0000
0000
0010
0000
0000
1000
0000
,  // measure 13
0200
0000
0000
0000
0000
0000
0000
0000
0310
0000
0000
0100
0000
0000
0010
0000
,  // measure 14
0002
0000
0000
0000
,  // measure 15
0000
0000
0000
0003
,  // measure 16
2010
0000
0000
0000
0000
0000
0000
0000
3001
0000
0000
0010
0000
0000
0001
0000
,  // measure 17
0200
0000
0000
0000
0000
0000
0000
0000
0310
0000
0000
1000
0000
0000
0100
0000
,  // measure 18
2000
0000
0000
0000
0000
3200
0000
1300
,  // measure 19
0020
0000
0000
0230
0000
0320
0000
1030
,  // measure 20
0002
0000
0000
0000
0000
0000
0000
0000
0013
0000
0000
0100
0000
0000
1000
0000
,  // measure 21
0200
0000
0000
0000
0000
0000
0000
0000
1300
0000
0000
0010
0000
0000
1000
0000
,  // measure 22
0002
0000
0000
0000
,  // measure 23
1003
0000
0000
0000
0000
0000
1000
0000
0000
0000
0000
0001
1000
0000
0000
0001
0000
0000
0110
0000
0000
0000
0000
0000
,  // measure 24
1000
0000
0000
1000
0000
0000
0001
0000
0000
0010
0000
0001
0000
0000
0000
0100
0000
0000
0010
0000
0000
0100
0000
0000
,  // measure 25
0010
0000
0000
0010
0000
0000
1000
0000
0000
0001
0000
1000
0000
0000
0000
1000
0000
0000
0010
0000
0000
0000
0000
0000
,  // measure 26
0100
0000
0000
0100
0000
0000
0010
0000
0000
1000
0000
0100
0000
0000
0000
0010
0000
0000
0100
0000
0000
0010
0000
0000
,  // measure 27
0001
0000
0000
0000
0000
0000
0000
0000
0000
0000
0000
0000
0100
0000
0000
0000
0000
0000
0010
0000
0000
0000
0100
0000
0000
0000
0000
0000
0000
0000
0010
0000
0000
0000
0000
0000
1000
0000
0000
0200
0000
0000
0000
0000
0000
0000
0000
0000
,  // measure 28
0310
0000
0000
0010
0000
0000
0100
0000
0000
1000
0000
0100
0000
0000
0000
0010
0000
0000
0100
0000
0000
1000
0000
0000
,  // measure 29
0001
0000
0000
0001
0000
0000
0100
0000
0000
0010
0000
0100
0000
0000
0000
0010
0000
0000
1000
0000
0000
0000
0000
0000
,  // measure 30
0001
0000
0000
0001
0000
0000
0010
0000
0000
0100
0000
1000
0000
0000
0000
0100
0000
0000
1000
0000
0000
0010
0000
0000
,  // measure 31
1000
0000
0100
0000
0011
0000
0000
0000
1100
0000
0000
0000
0100
0020
0000
0000
,  // measure 32
0031
0000
0000
0000
0000
1000
0001
0000
0000
0000
0000
0001
1000
0000
0000
1000
0000
0000
1000
0000
0000
0000
0000
0000
,  // measure 33
0110
0000
0000
0000
0000
0100
0010
0000
0000
0010
0000
0000
0100
0000
0000
0100
0000
0000
0010
0000
0000
0000
0000
0000
,  // measure 34
1010
0000
0000
0000
0000
1000
0100
0000
0000
0000
0000
0100
1000
0000
0000
1000
0000
0000
1000
0000
0000
0000
0000
0000
,  // measure 35
0101
0000
0000
0000
0000
0000
0000
0000
0000
0000
0001
0000
0010
0000
0000
0000
0000
0000
0010
0000
0000
0000
0000
0000
0001
0000
0000
0000
0000
0000
0001
0000
0000
0000
0000
0000
0100
0000
0000
0020
0000
0000
0000
0000
0000
0000
0000
0000
,  // measure 36
1030
0000
0000
0000
0000
0001
0100
0000
0000
0000
0000
0100
0010
0000
0000
0010
0000
0000
0010
0000
0000
0000
0000
0000
,  // measure 37
0100
0000
0000
0000
0000
0010
1000
0000
0000
1000
0000
0000
0010
0000
0000
0010
0000
0000
0100
0000
0000
0000
0000
0000
,  // measure 38
0001
0000
0000
0000
0000
0010
0100
0000
0000
0000
0000
0100
0010
0000
0000
0010
0000
0000
0001
0000
0000
0000
0000
0000
,  // measure 39
1001
0000
0000
0000
0000
1000
0001
0000
0100
0000
0000
0000
1010
0000
0000
0000
0000
1000
0010
0000
0000
0000
0000
0100
,  // measure 40
0001
0000
0000
0010
0000
0000
0110
0000
0000
0000
0000
0010
0001
0000
0000
0000
0000
0010
0100
0000
0000
0000
0000
0010
,  // measure 41
0001
0000
0000
1000
0000
0000
0110
0000
0000
0000
0000
0000
1010
0000
0000
0000
0000
1000
0001
0000
0000
0000
0000
0010
,  // measure 42
0100
0000
0000
1000
0000
0000
1010
0000
0000
0000
0000
0000
0110
0000
0000
0000
0000
0100
0001
0000
0000
0000
0000
0001
,  // measure 43
0010
0000
0000
0000
0000
0000
0100
0000
0000
0000
0000
0000
1000
0000
0000
0020
0000
0000
0000
0000
0000
0000
0000
0000
0130
0000
0000
0000
0000
0000
0000
0000
0000
0000
0010
0000
1000
0000
0000
0000
0000
0000
0000
0000
0000
0000
0001
0000
,  // measure 44
0100
0000
0000
0001
0000
0000
0011
0000
0000
0000
0000
0000
0110
0000
0000
0000
0000
0100
1000
0000
0000
0000
0000
1000
,  // measure 45
0010
0000
0000
1000
0000
0000
0100
0000
0000
0000
0000
0000
0011
0000
0000
0000
0000
0001
0010
0000
0000
0000
0000
0100
,  // measure 46
1000
0000
0000
1000
0000
0000
1000
0000
0000
1000
0000
0000
0101
0000
0000
0000
0000
1000
0001
0000
0100
0000
0000
0000
,  // measure 47
1020
0000
0100
0000
1000
1000
1000
0000
,  // measure 48
0100
1000
0200
0330
,  // measure 49
0102
0000
0010
0000
0100
0100
0100
0000
,  // measure 50
0010
0100
0020
0033
,  // measure 51
2100
0000
0010
0000
0001
0001
0001
0000
,  // measure 52
0010
0100
0020
3030
,  // measure 53
1002
0000
0010
0000
1000
1000
1003
0000
,  // measure 54
0110
0000
0000
0000
0000
1000
0010
0000
0100
0000
0000
0000
2001
0000
0000
0000
0000
0000
0100
0000
0000
0000
0000
0000
,  // measure 55
0010
0001
0010
0100
,  // measure 56
0010
3001
0002
0100
,  // measure 57
0010
1000
0010
0100
,  // measure 58
0010
1003
0200
1000
,  // measure 59
0010
0001
0010
1000
,  // measure 60
0010
0310
0020
0001
,  // measure 61
0100
1000
0200
0000
,  // measure 62
0000
0000
0330
0000
;

//---------------dance-single - ----------------
#NOTES:
     dance-single:
     :
     Medium:
     8:
     0.297361,0.376512,0.096205,0.166173,0.074340,238.000000,227.000000,11.000000,19.000000,0.000000,0.000000,0.297361,0.376512,0.096205,0.166173,0.074340,238.000000,227.000000,11.000000,19.000000,0.000000,0.000000:
// measure 0
0000
0000
0000
0000
,  // measure 1
0000
0000
0000
0000
,  // measure 2
0000
0000
0000
0000
,  // measure 3
0000
0000
0000
0000
,  // measure 4
0000
0000
0000
0000
,  // measure 5
0000
0000
0000
0000
,  // measure 6
0000
0000
0000
0000
,  // measure 7
0000
0000
0000
0000
,  // measure 8
0001
0000
0000
0000
0000
0000
0000
0000
1000
0000
0000
0100
0000
0000
1000
0000
,  // measure 9
0010
0000
0000
0000
0000
0000
0000
0000
0100
0000
0000
0001
0000
0000
0100
0000
,  // measure 10
0001
0000
0000
0000
0000
0010
0000
0001
,  // measure 11
1000
0000
0000
0100
0000
1000
0000
0100
,  // measure 12
0010
0000
0000
0000
0000
0000
0000
0000
0100
0000
0000
1000
0000
0000
0010
0000
,  // measure 13
0100
0000
0000
0000
0000
0000
0000
0000
0010
0000
0000
1000
0000
0000
0002
0000
,  // measure 14
2000
0000
0000
0000
,  // measure 15
0000
0000
0000
3003
,  // measure 16
0001
0000
0000
0000
0000
0000
0000
0000
0100
0000
0000
0001
0000
0000
0010
0000
,  // measure 17
0100
0000
0000
0000
0000
0000
0000
0000
0010
0000
0000
0001
0000
0000
1000
0000
,  // measure 18
0100
0000
0000
0000
0000
0100
0000
1000
,  // measure 19
0100
0000
0000
1000
0000
0010
0000
1000
,  // measure 20
0010
0000
0000
0000
0000
0000
0000
0000
0100
0000
0000
0010
0000
0000
1000
0000
,  // measure 21
0001
0000
0000
0000
0000
0000
0000
0000
0010
0000
0000
0100
0000
0000
2000
0000
,  // measure 22
0002
0000
0000
3003
,  // measure 23
1001
0010
0010
0010
,  // measure 24
1001
0000
0000
0000
1000
0000
0000
0100
0000
0000
1000
0000
0010
0000
0000
0000
,  // measure 25
0100
0000
0000
0000
0001
0000
0000
0010
0000
0000
0100
0000
0010
0000
0000
0000
,  // measure 26
0100
0000
0000
0000
1000
0000
0000
0100
0000
0000
1000
0000
0010
0000
0000
0000
,  // measure 27
0100
0000
0000
0000
0010
0000
0000
1000
0000
0000
0001
0000
1000
0100
0000
0000
,  // measure 28
0010
0000
0000
0000
0100
0000
0000
1000
0000
0000
0100
0000
1000
0000
0000
0000
,  // measure 29
0100
0000
0000
0000
1000
0000
0000
0010
0000
0000
0100
0000
0010
0000
0000
0000
,  // measure 30
1000
0000
0000
0000
0001
0000
0000
0010
0000
0000
0001
0000
0100
0000
0000
0000
,  // measure 31
0010
0000
0000
0000
1000
0000
0000
0000
1000
0000
0000
0000
0001
0100
0000
0000
,  // measure 32
0010
0000
1000
0001
1000
0001
1000
0000
,  // measure 33
0100
0000
0010
0001
0010
0001
0010
0100
,  // measure 34
1000
0000
0010
1000
0010
1000
0010
0000
,  // measure 35
0100
0000
0001
0100
0001
0100
0010
0000
,  // measure 36
1000
0000
0100
0010
0100
0010
0100
0000
,  // measure 37
0010
0000
0001
0100
0001
0100
0001
0000
,  // measure 38
1000
0000
0100
0010
0100
0010
0100
0000
,  // measure 39
1001
0000
2000
0100
,  // measure 40
0010
0001
0010
0100
,  // measure 41
0001
3010
0002
0100
,  // measure 42
0010
1000
0010
0100
,  // measure 43
0010
1003
0200
1000
,  // measure 44
0010
0001
0010
1000
,  // measure 45
0010
0310
0020
1000
,  // measure 46
0100
0001
0130
0000
,  // measure 47
1002
0000
0100
0000
1000
1000
1003
0000
,  // measure 48
2001
0000
0001
0000
0100
0100
3100
0000
,  // measure 49
1002
0000
0010
0000
1000
1000
1003
0000
,  // measure 50
2001
0000
0100
0000
0001
0001
3001
0000
,  // measure 51
1002
0000
0010
0000
1000
1000
1003
0000
,  // measure 52
2001
0000
0100
0000
0001
0001
3001
0000
,  // measure 53
1002
0000
0010
0000
1000
1000
1003
0000
,  // measure 54
0110
0000
2000
0100
,  // measure 55
0100
0100
0100
0100
,  // measure 56
0100
3000
0020
0001
,  // measure 57
0001
0001
0001
0001
,  // measure 58
0001
0030
0002
0100
,  // measure 59
0100
0100
0100
0100
,  // measure 60
0100
0003
2000
0010
,  // measure 61
0010
0010
3000
0000
;

//---------------dance-single - ----------------
#NOTES:
     dance-single:
     :
     Easy:
     6:
     0.177417,0.268937,0.026238,0.104951,0.000000,142.000000,139.000000,3.000000,12.000000,0.000000,0.000000,0.177417,0.268937,0.026238,0.104951,0.000000,142.000000,139.000000,3.000000,12.000000,0.000000,0.000000:
// measure 0
0000
0000
0000
0000
,  // measure 1
0000
0000
0000
0000
,  // measure 2
0000
0000
0000
0000
,  // measure 3
0000
0000
0000
0000
,  // measure 4
0000
0000
0000
0000
,  // measure 5
0000
0000
0000
0000
,  // measure 6
0000
0000
0000
0000
,  // measure 7
0000
0000
0000
0000
,  // measure 8
1000
0000
0001
0000
,  // measure 9
0100
0000
0001
0000
,  // measure 10
0010
0000
0000
0000
,  // measure 11
0001
0000
1000
0000
,  // measure 12
0100
0000
1000
0000
,  // measure 13
0010
0000
1000
0000
,  // measure 14
0002
0000
0000
0000
,  // measure 15
0000
0000
0000
0003
,  // measure 16
0100
0000
0001
0000
,  // measure 17
0010
0000
0001
0000
,  // measure 18
1000
0000
0000
0000
,  // measure 19
0001
0000
1000
0000
,  // measure 20
0100
0000
1000
0000
,  // measure 21
0010
0000
1000
0000
,  // measure 22
0200
0000
0000
0000
,  // measure 23
0310
0010
0010
0010
,  // measure 24
1001
0001
1000
0100
,  // measure 25
1000
0001
1000
0010
,  // measure 26
1000
0100
0010
0001
,  // measure 27
2000
0000
0000
3000
,  // measure 28
0001
0100
0010
0100
,  // measure 29
0001
0100
0010
0100
,  // measure 30
0001
0100
0010
1000
,  // measure 31
0200
0000
0000
0300
,  // measure 32
0010
0001
0001
0001
,  // measure 33
1000
0001
0001
0000
,  // measure 34
1000
0010
0010
0010
,  // measure 35
1000
0010
0010
0000
,  // measure 36
0100
0010
0010
0010
,  // measure 37
1000
0010
0010
0000
,  // measure 38
0100
0001
0001
0001
,  // measure 39
1001
0000
0001
0100
,  // measure 40
0001
0010
0001
0100
,  // measure 41
0001
0000
1000
0100
,  // measure 42
0010
0100
1000
0100
,  // measure 43
1000
0000
0001
1000
,  // measure 44
0010
1000
0001
1000
,  // measure 45
0001
0000
1000
0100
,  // measure 46
1000
0001
1001
0000
,  // measure 47
0002
0100
0000
0010
,  // measure 48
0000
0100
0000
0013
,  // measure 49
0200
1000
0000
0010
,  // measure 50
0000
1000
0000
0310
,  // measure 51
0002
0100
0000
0010
,  // measure 52
0000
0100
0000
0013
,  // measure 53
0200
1000
0000
0010
,  // measure 54
0300
0000
0020
0001
,  // measure 55
0000
0001
0000
0001
,  // measure 56
0000
0030
0200
1000
,  // measure 57
0000
1000
0000
1000
,  // measure 58
0000
0300
2000
0001
,  // measure 59
0000
0001
0000
0001
,  // measure 60
0000
3000
0020
0100
,  // measure 61
0000
0100
0030
0000
;

//---------------dance-single - ----------------
#NOTES:
     dance-single:
     :
     Beginner:
     2:
     0.069967,0.107575,0.000000,0.104951,0.000000,56.000000,56.000000,0.000000,12.000000,0.000000,0.000000,0.069967,0.107575,0.000000,0.104951,0.000000,56.000000,56.000000,0.000000,12.000000,0.000000,0.000000:
// measure 0
0000
0000
0000
0000
,  // measure 1
0000
0000
0000
0000
,  // measure 2
0000
0000
0000
0000
,  // measure 3
0000
0000
0000
0000
,  // measure 4
0000
0000
0000
0000
,  // measure 5
0000
0000
0000
0000
,  // measure 6
0000
0000
0000
0000
,  // measure 7
0000
0000
0000
0000
,  // measure 8
1000
0000
0000
0000
,  // measure 9
0001
0000
0000
0000
,  // measure 10
0100
0000
0000
0000
,  // measure 11
0010
0000
1000
0000
,  // measure 12
0100
0000
0000
0000
,  // measure 13
1000
0000
0000
0000
,  // measure 14
0020
0000
0000
0000
,  // measure 15
0000
0000
0000
0030
,  // measure 16
0100
0000
0000
0000
,  // measure 17
0001
0000
0000
0000
,  // measure 18
0010
0000
0000
0000
,  // measure 19
0001
0000
1000
0000
,  // measure 20
0001
0000
0000
0000
,  // measure 21
0100
0000
0000
0000
,  // measure 22
0020
0000
0000
0000
,  // measure 23
0030
0000
0000
0000
,  // measure 24
0100
0000
0000
0000
,  // measure 25
0001
0000
0000
0000
,  // measure 26
0010
0000
0001
0000
,  // measure 27
2000
0000
0000
3000
,  // measure 28
0001
0000
0000
0000
,  // measure 29
1000
0000
0000
0000
,  // measure 30
0010
0000
1000
0000
,  // measure 31
0002
0000
0000
0003
,  // measure 32
1000
0000
0001
0000
,  // measure 33
1000
0000
0000
0000
,  // measure 34
0010
0000
0100
0000
,  // measure 35
0010
0000
0000
0000
,  // measure 36
1000
0000
0010
0000
,  // measure 37
1000
0000
0000
0000
,  // measure 38
0001
0000
0100
0000
,  // measure 39
0000
0000
0001
0000
,  // measure 40
0000
0000
0010
0000
,  // measure 41
0000
0000
0100
0000
,  // measure 42
0000
0000
1000
0000
,  // measure 43
0001
0000
0100
0000
,  // measure 44
0000
0000
0010
0000
,  // measure 45
0000
0000
1000
0000
,  // measure 46
0000
0000
0000
0000
,  // measure 47
0002
0000
0000
0003
,  // measure 48
1000
0000
0000
0000
,  // measure 49
2000
0000
0000
3000
,  // measure 50
0001
0000
0000
0000
,  // measure 51
0200
0000
0000
0300
,  // measure 52
0010
0000
0000
0000
,  // measure 53
0020
0000
0000
0030
,  // measure 54
0000
0000
2000
0000
,  // measure 55
0000
0000
0000
0000
,  // measure 56
0000
3000
0002
0000
,  // measure 57
0000
0000
0000
0000
,  // measure 58
0000
0003
0200
0000
,  // measure 59
0000
0000
0000
0000
,  // measure 60
0000
0300
0020
0000
,  // measure 61
0000
0000
0030
0000
;
