#TITLE:Crystalia;
#SUBTITLE:;
#ARTIST:DJ TOTTO;
#TITLETRANSLIT:;
#SUBTITLETRANSLIT:;
#ARTISTTRANSLIT:;
#GENRE:ARTCORE WALTZ;
#CREDIT:;
#BANNER:Crystalia.png;
#BACKGROUND:Crystalia-bg.png;
#LYRICSPATH:;
#CDTITLE:;
#MUSIC:Crystalia.ogg;
#OFFSET:-0.004000;
#SAMPLESTART:90.448441;
#SAMPLELENGTH:14.444443;
#SELECTABLE:YES;
#BPMS:0.000000=270.000000
;
#STOPS:503.000000=0.889000
;
#BGCHANGES:;
#KEYSOUNDS:;
#ATTACKS:;

//---------------dance-single - ----------------
#NOTES:
     dance-single:
     :
     Hard:
     15:
     0.597249,0.979624,0.320946,0.371622,0.000000,495.000000,457.000000,38.000000,44.000000,0.000000,0.000000,0.597249,0.979624,0.320946,0.371622,0.000000,495.000000,457.000000,38.000000,44.000000,0.000000,0.000000:
// measure 0
0000
0000
0000
0000
,  // measure 1
0000
0000
0000
0000
,  // measure 2
0000
0000
0000
0000
,  // measure 3
0000
0000
0000
0000
,  // measure 4
0000
0000
0000
0000
,  // measure 5
0000
0000
0000
0000
,  // measure 6
0000
0000
0000
0000
,  // measure 7
0000
0000
0000
0000
,  // measure 8
0000
0000
0000
0000
,  // measure 9
0000
0000
0000
0000
,  // measure 10
0000
0000
0000
0000
,  // measure 11
0000
0000
0000
0000
,  // measure 12
2010
0000
0000
0000
,  // measure 13
0000
3000
0201
0000
,  // measure 14
0300
0020
0000
0030
,  // measure 15
2001
0000
0000
3002
,  // measure 16
0000
0000
0000
0000
,  // measure 17
0000
0023
0032
0203
,  // measure 18
0320
0000
0000
0000
,  // measure 19
0000
0030
0201
0000
,  // measure 20
0000
0320
0000
0030
,  // measure 21
1002
0000
0000
0000
,  // measure 22
0000
0003
2100
0000
,  // measure 23
0000
0000
0000
3000
,  // measure 24
0011
0000
0000
0001
,  // measure 25
0000
0000
0100
0000
,  // measure 26
0000
1000
0000
0000
,  // measure 27
0100
0000
0000
0010
,  // measure 28
0000
0000
1000
0000
,  // measure 29
0000
0001
0000
0000
,  // measure 30
1001
0001
0000
1100
,  // measure 31
0010
0000
0011
0100
,  // measure 32
0000
1010
0100
0001
,  // measure 33
0110
0100
0000
1001
,  // measure 34
0010
0000
1010
0001
,  // measure 35
0000
1001
0001
1000
,  // measure 36
1010
0010
0000
0101
,  // measure 37
0010
0000
0011
0100
,  // measure 38
0000
0011
0001
1000
,  // measure 39
1010
0100
0000
0011
,  // measure 40
0010
0001
1000
0000
,  // measure 41
0001
1000
0100
0001
,  // measure 42
0100
0000
0000
0100
0000
0000
0010
0000
,  // measure 43
0001
0000
0100
0000
0010
0000
0000
0010
,  // measure 44
0000
0100
0010
1000
,  // measure 45
0001
0000
0000
0001
0000
0000
1000
0000
,  // measure 46
0100
0000
1000
0000
0010
0000
0000
1000
,  // measure 47
0000
0001
0010
1000
,  // measure 48
0010
0000
0000
0100
0000
0000
0010
0000
,  // measure 49
0100
0000
1000
0000
0001
0000
0000
0100
,  // measure 50
0000
0001
1000
0010
,  // measure 51
1000
0000
0000
0100
0000
0000
1000
0000
,  // measure 52
0100
0010
0100
0000
,  // measure 53
0010
0001
0100
0010
,  // measure 54
1000
0001
0000
0010
0100
0000
0010
0001
,  // measure 55
0100
0000
0010
0000
1000
0001
0000
1000
,  // measure 56
0100
0000
1000
0100
0010
0001
0010
0100
,  // measure 57
1000
0100
0000
1000
0010
0000
0100
0010
,  // measure 58
0100
0000
0001
0000
0010
0100
0000
0010
,  // measure 59
0001
0000
0100
0001
0010
0001
1000
0100
,  // measure 60
0010
0100
0000
0010
0001
0000
1000
0001
,  // measure 61
0100
0000
0010
0000
1000
0010
0000
0100
,  // measure 62
0010
0000
0100
0001
0010
0100
1000
0001
,  // measure 63
1000
0100
0000
0010
0100
0000
0010
0001
,  // measure 64
0100
0000
0010
0000
1000
0001
0000
0010
,  // measure 65
0100
0000
0010
0001
1000
0010
0100
0001
,  // measure 66
0010
0100
0000
0100
1000
0000
0100
0010
,  // measure 67
0001
0000
1001
0000
0001
0100
0000
0010
,  // measure 68
1000
0000
0010
0100
0001
0010
0100
1000
,  // measure 69
0001
1000
0000
1000
0010
0000
0010
0100
,  // measure 70
0001
0000
1010
0000
1000
0100
0000
0010
,  // measure 71
0001
0000
0010
0001
1000
0100
0010
0001
,  // measure 72
1000
0010
0000
1000
0100
0000
0010
0100
,  // measure 73
1000
0000
1001
0000
0001
0100
0000
0001
,  // measure 74
1000
0000
0100
0010
0100
1000
0010
0100
,  // measure 75
0001
0010
0000
0001
0100
0000
0010
1000
,  // measure 76
0001
0000
1100
0000
0100
1000
0000
0100
,  // measure 77
0010
0000
0100
1000
0100
0010
0001
1000
,  // measure 78
0002
0000
0000
2003
,  // measure 79
0000
0000
3020
0000
,  // measure 80
0000
0032
0000
0003
,  // measure 81
0110
0000
0000
0100
0000
0000
0100
0000
,  // measure 82
0000
0000
0000
0000
0110
0000
0000
1000
,  // measure 83
0000
1000
0000
0000
,  // measure 84
0002
0000
0000
0023
,  // measure 85
0000
0000
2030
0000
,  // measure 86
0000
3020
0000
0030
,  // measure 87
0110
0000
0000
0010
0000
0000
0010
0000
,  // measure 88
0200
0000
2300
0000
3002
0000
0000
1003
,  // measure 89
0000
0001
0010
0100
,  // measure 90
1002
0000
0003
2100
,  // measure 91
0000
3000
0021
0000
,  // measure 92
0030
0201
0000
0300
,  // measure 93
1020
0000
0000
0100
0000
0000
0130
0000
,  // measure 94
0000
0000
0020
0000
,  // measure 95
2030
0000
3002
0000
,  // measure 96
0023
0000
0000
0000
,  // measure 97
0230
0320
0032
0000
,  // measure 98
0000
0000
0023
0230
,  // measure 99
2300
0000
0000
0000
,  // measure 100
0000
0000
0020
0000
,  // measure 101
0000
0000
3030
0000
0000
0000
1000
0001
,  // measure 102
1000
0010
1000
0010
0100
0000
0001
0010
,  // measure 103
0001
0010
0100
0000
0010
0100
0010
0100
,  // measure 104
1000
0000
0100
1000
0010
0000
0100
0001
,  // measure 105
1000
0100
1000
0100
1000
0001
0100
0000
,  // measure 106
0010
1000
0000
1000
0001
0000
0010
0000
,  // measure 107
0100
0000
2000
0000
0000
0000
3001
1000
,  // measure 108
0010
0100
0010
0100
0010
0000
1000
0010
,  // measure 109
1000
0010
1000
0000
0001
0100
0001
0100
,  // measure 110
0010
0100
0001
1000
0100
0010
0100
1000
,  // measure 111
0002
0000
0100
2003
,  // measure 112
0000
0010
3001
0010
,  // measure 113
1000
0010
0100
1000
,  // measure 114
0001
1000
0100
1000
0001
0000
1000
0001
,  // measure 115
0010
0001
1000
0000
0010
1000
0100
1000
,  // measure 116
0001
0010
0100
0010
0001
0000
1000
0010
,  // measure 117
1000
0001
0100
0001
1000
0001
0010
0000
,  // measure 118
0100
0010
0001
0100
0010
0000
1000
0000
,  // measure 119
0100
0000
0020
0000
0000
0000
0130
1000
,  // measure 120
0001
0100
0010
0100
0001
0010
0100
0010
,  // measure 121
0001
0100
0010
1000
0100
0010
0100
1000
,  // measure 122
0001
0100
0010
1000
0001
0010
0100
0010
,  // measure 123
0001
0101
1010
1000
,  // measure 124
1100
0000
0011
0000
0001
0010
1000
0010
,  // measure 125
0001
0010
0100
1000
0010
0100
0010
0000
,  // measure 126
1001
1000
0100
0010
0001
0010
0100
1000
,  // measure 127
0100
0010
0100
1000
0100
0010
0001
0010
,  // measure 128
0100
1000
0100
0010
0001
0010
0100
0010
;

//---------------dance-single - ----------------
#NOTES:
     dance-single:
     :
     Medium:
     11:
     0.389720,0.762669,0.177365,0.008446,0.000000,323.000000,302.000000,21.000000,1.000000,0.000000,0.000000,0.389720,0.762669,0.177365,0.008446,0.000000,323.000000,302.000000,21.000000,1.000000,0.000000,0.000000:
0000
0000
0000
0000
,
0000
0000
0000
0000
,
0000
0000
0000
0000
,
0000
0000
0000
0000
,
0000
0000
0000
0000
,
0000
0000
0000
0000
,
0000
0000
0000
0000
,
0000
0000
0000
0000
,
0000
0000
0000
0000
,
0000
0000
0000
0000
,
0000
0000
0000
0000
,
0000
0000
0000
0000
,
1001
0000
0000
0000
,
0000
0000
0010
0000
,
0000
1000
0000
0000
,
0100
0000
0000
1000
,
0000
0000
0000
0000
,
0000
0100
1000
0010
,
0100
0000
0000
0000
,
0000
0000
0010
0000
,
0000
0100
0000
0000
,
0001
0000
0000
0000
,
0000
0000
1000
0000
,
0000
0000
0000
0000
,
1001
0000
0000
0001
,
0000
0000
0010
0000
,
0000
0100
0000
0000
,
0010
0000
0000
0001
,
0000
0000
1000
0000
,
0000
0100
0000
0000
,
1000
1000
0000
0001
,
0001
0000
0100
0100
,
0000
0010
0010
0000
,
1000
1000
0000
0010
,
0010
0000
0100
0100
,
0000
0010
0010
1000
,
0001
0001
0000
1000
,
1000
0000
0100
0100
,
0000
0010
0010
0000
,
0100
0100
0000
1000
,
1000
0100
1000
0000
,
0100
0010
0010
0001
,
1000
0010
0000
0100
,
0001
0000
0010
0100
,
0000
0010
0001
0000
,
1000
0010
0000
0100
,
0001
0000
0010
0100
,
0000
0010
0001
0100
,
0010
1000
0000
0010
,
0100
0000
0001
1000
,
0000
0100
0010
0000
,
0100
1000
0000
0100
,
1000
0010
0100
0000
,
0010
1000
0001
0010
,
0100
0000
0000
1000
0000
0000
0001
0000
,
1000
0000
0001
0000
0100
0000
0000
0010
,
0000
1000
0010
0100
,
0001
0000
0000
0010
0000
0000
0100
0000
,
0010
0000
0000
0000
0001
0000
0000
1000
,
0000
0100
1000
0010
,
0100
0000
0000
0001
0000
0000
0010
0000
,
0100
0000
1000
0000
0001
0000
0000
0100
,
0000
0001
0010
0001
,
1000
0000
0000
0100
0000
0000
0010
0000
,
0100
0000
0010
0000
0100
0000
0000
1000
,
0000
0001
0010
0100
,
1000
0000
0000
0001
0000
0000
0100
0000
,
0001
0000
0010
0000
0100
0000
0000
0010
,
0000
0100
1000
0010
,
0100
0000
0000
1000
0000
0000
0100
0000
,
0010
0000
1000
0000
0001
0000
0000
0010
,
0000
0100
0010
0001
,
1000
0000
0000
0100
0000
0000
0010
0000
,
0100
0000
1000
0000
0010
0000
0000
0100
,
0000
1000
0100
0001
,
1000
0000
0000
0001
0000
0000
0010
0000
,
0100
0000
1000
0000
0001
0000
0000
1000
,
0000
0001
0010
1000
,
0010
0000
0000
0001
,
0000
0000
0100
0000
,
0000
0010
0000
0000
,
1001
0000
0000
1000
0000
0000
0001
0000
,
0000
0000
0000
0000
1001
0000
0000
1000
,
0000
0001
0000
0000
,
0100
0000
0000
0010
,
0000
0000
1000
0000
,
0000
0001
0000
0000
,
0011
0000
0000
0010
0000
0000
0100
0000
,
1000
0010
0100
0000
,
0000
0010
1000
0001
,
0011
0000
0000
0101
,
0000
0000
1010
0000
,
0000
1001
0000
0000
,
1100
0000
0000
0100
0000
0000
0010
0000
,
0000
0000
0010
0000
,
0001
0000
0100
0000
,
0110
0000
0000
0000
,
0100
0010
1010
0000
,
0000
0000
0001
0010
,
0110
0000
0000
0000
,
0000
0000
1100
0000
,
0000
0101
0000
0000
,
1000
0010
0100
0010
,
1000
0010
0100
0010
,
1000
0001
0100
0010
,
1000
0000
0000
0001
0000
0000
1000
0000
,
0000
0010
0000
0000
1000
0000
0100
0000
,
0010
0100
0000
0010
,
0001
0100
0010
0100
,
0001
0100
0010
0100
,
0001
1000
0010
1000
,
0100
0000
0010
0001
,
0000
0010
0001
0001
,
1000
0010
0010
0100
,
0010
1000
0100
0010
,
0100
1000
0100
0010
,
0100
1000
0001
0100
,
0010
1000
0100
1000
,
0001
0010
0100
0100
,
0010
0001
0000
0000
,
1000
0001
0100
1000
,
0100
0001
1000
0001
,
0010
1000
0010
0001
,
1001
0010
0010
1001
,
0100
0100
1001
0010
,
1001
0100
1001
0110
,
0200
0000
0000
0000
,
0000
0000
0000
0000
,
0000
0000
0000
0000
,
0300
0000
0000
0000
;

//---------------dance-single - ----------------
#NOTES:
     dance-single:
     :
     Easy:
     7:
     0.232867,0.489812,0.033784,0.008446,0.000000,193.000000,189.000000,4.000000,1.000000,0.000000,0.000000,0.232867,0.489812,0.033784,0.008446,0.000000,193.000000,189.000000,4.000000,1.000000,0.000000,0.000000:
0000
0000
0000
0000
,
0000
0000
0000
0000
,
0000
0000
0000
0000
,
0000
0000
0000
0000
,
0000
0000
0000
0000
,
0000
0000
0000
0000
,
0000
0000
0000
0000
,
0000
0000
0000
0000
,
0000
0000
0000
0000
,
0000
0000
0000
0000
,
0000
0000
0000
0000
,
0000
0000
0000
0000
,
1000
0000
0000
0000
,
0000
0000
0010
0000
,
0000
0100
0000
0000
,
0010
0000
0000
1000
,
0000
0000
0000
0000
,
0000
0001
0000
0000
,
1000
0000
0000
0000
,
0000
0000
0100
0000
,
1000
0000
0000
0000
,
0010
0000
0000
0000
,
0000
0000
0100
0000
,
0000
0000
0000
0000
,
1001
0000
0000
0000
,
0000
0000
0000
0000
,
0000
0000
0000
0000
,
0000
0000
0000
0000
,
0000
0000
0000
0000
,
0000
0000
0000
0000
,
0010
0000
0000
1000
,
0000
0000
0100
0000
,
0000
1000
0000
0000
,
0010
0000
0000
0100
,
0000
0000
0001
0000
,
0000
0010
0000
0000
,
0001
0000
0000
0100
,
0000
0000
0010
0000
,
0000
1000
0000
0000
,
0100
0000
0000
1000
,
0000
0000
0001
0000
,
0000
0100
0000
0000
,
0010
0000
0000
1000
,
0000
0000
0001
0000
,
0000
0010
0000
0000
,
0100
0000
0000
0010
,
0000
0000
0001
0000
,
0000
1000
0000
0000
,
0010
0000
0000
1000
,
0000
0000
0100
0000
,
0000
1000
0000
0000
,
0001
0000
0000
0100
,
0000
0000
0010
0000
,
0000
1000
0000
0000
,
0001
0000
0000
0010
0000
0000
0001
0000
,
0000
0000
0000
0000
1000
0000
0000
0010
,
0000
1000
0000
0000
,
0100
0000
0000
0010
0000
0000
0001
0000
,
0000
0000
0000
0000
0100
0000
0000
0010
,
0000
0100
0000
0000
,
0010
0000
0000
1000
0000
0000
0001
0000
,
0000
0000
0000
0000
0100
0000
0000
0010
,
0000
1000
0000
0000
,
0100
0000
0000
1000
0000
0000
0010
0000
,
0000
0000
0000
0000
0100
0000
0000
0001
,
0000
1000
0000
0000
,
0001
0000
0000
1000
0000
0000
0010
0000
,
0000
0000
0000
0000
0100
0000
0000
0001
,
0000
0010
0000
0000
,
0100
0000
0000
0010
0000
0000
0001
0000
,
0000
0000
0000
0000
0010
0000
0000
0001
,
0000
1000
0000
0000
,
0010
0000
0000
1000
0000
0000
0100
0000
,
0000
0000
0000
0000
0010
0000
0000
0100
,
0000
1000
0000
0000
,
0100
0000
0000
1000
0000
0000
0010
0000
,
0000
0000
0000
0000
0100
0000
0000
0010
,
0000
1000
0000
0000
,
1001
0000
0000
1000
,
0000
0000
0010
0000
,
0000
1000
0000
0000
,
0001
0000
0000
0001
0000
0000
0001
0000
,
0000
0000
0000
0000
0001
0000
0000
0001
,
0000
0001
0000
0000
,
1000
0000
0000
0001
,
0000
0000
0100
0000
,
0000
0010
0000
0000
,
1000
0000
0000
1000
0000
0000
1000
0000
,
0000
0000
0000
0000
0001
0000
0000
0001
,
0000
0001
0000
0000
,
1001
0000
0000
0010
,
0000
0000
0100
0000
,
0000
0010
0000
0000
0000
0000
0000
0000
,
1000
0000
0000
0010
0000
0000
1000
0000
,
0000
0000
0000
0010
0000
0000
0000
0000
,
0100
0000
0010
0000
,
1001
0000
0000
0000
,
1000
0100
0010
0000
,
0000
0000
0100
0010
,
0001
0000
0000
0000
,
0000
0000
1000
0000
,
0000
0000
0000
0000
,
0001
0000
0000
1000
,
0000
0000
0010
0000
,
0000
1000
0010
0100
,
0001
0000
0000
0010
,
0000
0001
0000
0000
1000
0000
0001
0100
,
0000
0001
0000
0000
,
0010
0000
0000
0001
,
0000
0000
1000
0000
,
0000
0010
1000
0100
,
0010
0000
0100
1000
,
0000
0100
0010
0000
,
0000
0001
0000
0000
,
1000
0000
0000
0001
,
0000
0000
0100
0000
,
0000
0010
1000
0100
,
0010
0000
0000
0100
,
0000
1000
0000
0000
0001
0000
0100
0000
,
0001
0010
0000
0000
,
0100
1000
0010
0100
,
0000
0000
0010
0100
,
0001
0010
0000
0000
,
0100
1000
1000
0100
,
1000
1000
0100
0010
,
0001
1000
0100
0010
,
0002
0000
0000
0000
,
0000
0000
0000
0000
,
0000
0000
0000
0000
0000
0000
0000
0003
;

//---------------dance-single - ----------------
#NOTES:
     dance-single:
     :
     Beginner:
     5:
     0.129102,0.266047,0.050676,0.000000,0.000000,107.000000,101.000000,6.000000,0.000000,0.000000,0.000000,0.129102,0.266047,0.050676,0.000000,0.000000,107.000000,101.000000,6.000000,0.000000,0.000000,0.000000:
0000
0000
0000
0000
,
0000
0000
0000
0000
,
0000
0000
0000
0000
,
0000
0000
0000
0000
,
0000
0000
0000
0000
,
0000
0000
0000
0000
,
0000
0000
0000
0000
,
0000
0000
0000
0000
,
0000
0000
0000
0000
,
0000
0000
0000
0000
,
0000
0000
0000
0000
,
0000
0000
0000
0000
,
1000
0000
0000
0000
,
0000
0000
0000
0000
,
0000
0000
0000
0000
,
0001
0000
0000
0000
,
0000
0000
0000
0000
,
0000
0000
0000
0000
,
0100
0000
0000
0000
,
0000
0000
0000
0000
,
0000
0000
0000
0000
,
0010
0000
0000
0000
,
0000
0000
1000
0000
,
0000
0000
0000
0000
,
0001
0000
0000
0000
,
0000
0000
0000
0000
,
0000
0000
0000
0000
,
0000
0000
0000
0000
,
0000
0000
0000
0000
,
0000
0000
0000
0000
,
1000
0000
0000
1000
,
0000
0000
1000
0000
,
0000
1000
0000
0000
,
1000
0000
0000
1000
,
0000
0000
1000
0000
,
0000
1000
0000
0000
,
0001
0000
0000
0001
,
0000
0000
0001
0000
,
0000
0001
0000
0000
,
0001
0000
0000
0001
,
0000
0000
0001
0000
,
0000
0001
0000
0000
,
0100
0000
0000
0010
,
0000
0000
0100
0000
,
0000
0010
0000
0000
,
1000
0000
0000
0001
,
0000
0000
1000
0000
,
0000
0001
0000
0000
,
0100
0000
0000
0010
,
0000
0000
0100
0000
,
0000
0010
0000
0000
,
1000
0000
0000
0001
,
0000
0000
0010
0000
,
0000
0001
0000
0000
,
1001
0000
0000
0000
,
0000
0000
0010
0000
,
0000
0000
0000
0000
,
0110
0000
0000
0000
,
0000
0000
1000
0000
,
0000
0000
0000
0000
,
1001
0000
0000
0000
,
0000
0000
0010
0000
,
0000
0000
0000
0000
,
1001
0000
0000
0000
,
0000
0000
0100
0000
,
0000
0000
0000
0000
,
0010
0000
0000
0000
,
1000
0000
0001
0000
,
0000
0000
0000
0000
,
0010
0000
0000
0000
,
0100
0000
1000
0000
,
0000
0000
0000
0000
,
0100
0000
0000
0000
,
0010
0000
0001
0000
,
0000
0000
0000
0000
,
1000
0000
0000
0000
,
0001
0000
0100
0000
,
0000
0010
0000
0000
,
1001
0000
0000
0000
,
0000
0000
0000
0000
,
0000
0000
0000
0000
,
0010
0000
0000
0000
,
0000
0000
0010
0000
,
0000
0000
0000
0000
,
0100
0000
0000
0000
,
0000
0000
0000
0000
,
0000
0000
0000
0000
,
0001
0000
0000
0000
,
0000
0000
0001
0000
,
0000
0000
0000
0000
,
1001
0000
0000
0000
,
0000
0000
1000
0000
,
0000
0000
0000
0000
,
0010
0000
0000
0000
,
0000
0000
0100
0000
,
0000
0000
0000
0000
,
0010
0000
0000
0000
,
0000
0000
1000
0000
,
0000
0000
0000
0000
,
0100
0000
0000
0000
,
0000
0000
0010
0000
,
0000
0000
0000
0000
,
0001
0000
0000
0001
,
0000
0000
0001
0000
,
0000
0000
0000
0000
,
1000
0000
0000
0001
,
0000
0000
0100
0000
,
0000
0010
0000
0000
,
1000
0000
0000
1000
,
0000
0000
1000
0000
,
0000
0000
0000
0000
,
0001
0000
0000
1000
,
0000
0000
0010
0000
,
0000
1000
0000
0000
,
0100
0000
0000
0100
,
0000
0000
0100
0000
,
0000
0000
0000
0000
,
0010
0000
0000
0010
,
0000
0000
0001
0000
,
0000
0100
0000
0000
,
0010
0000
0000
0000
,
0000
0000
1000
0000
,
0000
0000
0000
0000
,
0001
0000
0000
1000
,
0000
0000
0010
0000
,
0000
0100
0000
0000
,
0010
0000
0000
0000
;
