#TITLE:Children;
#SUBTITLE:;
#ARTIST:Rameses B;
#TITLETRANSLIT:;
#SUBTITLETRANSLIT:;
#ARTISTTRANSLIT:;
#GENRE:DRUM & BASS;
#CREDIT:;
#BANNER:banner.png;
#BACKGROUND:background.png;
#LYRICSPATH:;
#CDTITLE:;
#MUSIC:Children.ogg;
#OFFSET:-0.375000;
#SAMPLESTART:22.099136;
#SAMPLELENGTH:22.413792;
#SELECTABLE:YES;
#BPMS:0.000000=174.000000
;
#STOPS:
;
#BGCHANGES:;
#KEYSOUNDS:;
#ATTACKS:;

//---------------dance-single - ----------------
#NOTES:
     dance-single:
     :
     Hard:
     13:
     0.574632,0.712405,0.137312,0.290778,0.117119,498.000000,481.000000,17.000000,36.000000,0.000000,0.000000,0.574632,0.712405,0.137312,0.290778,0.117119,498.000000,481.000000,17.000000,36.000000,0.000000,0.000000:
// measure 0
0000
0000
0000
0000
,  // measure 1
0000
0000
0000
0000
,  // measure 2
0000
0000
0000
0000
,  // measure 3
0000
0000
0000
0000
,  // measure 4
0000
0000
0000
0000
,  // measure 5
0000
0000
0000
0000
,  // measure 6
0000
0000
0000
0000
,  // measure 7
0000
0000
0000
0000
,  // measure 8
1000
0000
1000
0000
1000
0000
1000
0100
,  // measure 9
0010
0000
0010
0000
0010
0000
0010
0001
,  // measure 10
0100
0000
0100
0000
0100
0000
0100
0010
,  // measure 11
1000
0000
1000
0000
1000
0000
1000
0001
,  // measure 12
0010
0100
0010
0000
0001
0010
0001
0000
,  // measure 13
1000
0100
1000
0000
0010
1000
0010
0000
,  // measure 14
0100
0001
0010
0100
1000
0100
0010
0001
,  // measure 15
1000
0000
0000
0000
0000
0000
0001
1000
0000
0000
0010
0000
1000
0100
0010
0001
,  // measure 16
1000
0100
1000
0000
0000
0010
0100
0000
,  // measure 17
0001
0010
0100
0000
0020
0000
0031
0200
,  // measure 18
0310
1000
0001
0000
0000
1000
0100
0000
,  // measure 19
0010
0000
0100
1000
0020
0000
1030
0200
,  // measure 20
0310
0001
0100
0000
0000
0010
1000
0000
,  // measure 21
0001
1000
0100
0000
2000
0000
3001
0020
,  // measure 22
0130
0010
0001
0000
0000
1000
0010
0000
,  // measure 23
0100
0000
0000
0000
0010
0000
1000
0000
0000
0000
1000
0000
0001
0010
0100
1000
,  // measure 24
0010
1000
0100
0000
0010
0001
0100
0000
,  // measure 25
0010
1000
0001
0000
2000
0000
3001
0020
,  // measure 26
0130
1000
0010
0000
0100
0001
1000
0000
,  // measure 27
0001
0000
0000
0000
0010
0000
0100
0000
0000
0000
0010
0000
0001
0000
1000
0001
,  // measure 28
0100
0000
0001
0011
0000
0000
0000
0000
,  // measure 29
0000
0110
0000
0000
1100
0000
1000
0010
,  // measure 30
0100
0000
0001
0000
0000
1000
0001
0000
,  // measure 31
0100
1000
0100
0001
,  // measure 32
0010
0100
0010
0100
0010
0000
0100
1000
,  // measure 33
0000
0001
0100
0001
0100
0000
0001
1000
,  // measure 34
0000
0100
0010
0100
0010
0000
0100
1000
,  // measure 35
0000
0000
0010
0000
1000
0000
0010
0000
1000
0000
0000
0000
1000
0100
0010
0100
,  // measure 36
1000
0000
0001
0000
1000
0010
0100
0000
,  // measure 37
0001
1020
0000
0230
0000
1000
0000
0301
,  // measure 38
1001
1000
0001
0000
0010
0000
0100
0000
,  // measure 39
0010
0000
0001
0000
1000
0000
0000
0000
0010
0000
0000
0000
0100
0001
0010
0100
,  // measure 40
0010
0000
0100
0000
1000
0001
0010
0000
,  // measure 41
0001
0021
0000
1000
0000
0001
0000
0130
,  // measure 42
1001
0001
0100
0000
0010
0000
1000
0000
,  // measure 43
0001
0000
0010
0000
0100
0000
0000
0000
1000
0000
0000
0000
0001
0100
0010
1000
,  // measure 44
0100
0010
0100
1000
0001
0000
0100
0010
,  // measure 45
1000
0201
0000
1000
0000
0320
0000
1030
,  // measure 46
1001
1000
0100
0010
0100
0000
1000
0010
,  // measure 47
0000
0000
0100
0000
0010
0000
1000
0000
0001
0000
0000
0000
0010
0100
1000
0001
,  // measure 48
0010
0001
0100
0010
1000
0000
0001
0010
,  // measure 49
0100
2100
0000
0010
0000
0001
0000
3010
,  // measure 50
1001
0000
0000
0000
0000
0000
0001
0100
0010
0000
0000
0000
0000
0000
0001
0100
,  // measure 51
0010
0000
0100
0010
1000
0000
0100
0010
0001
0000
0010
0100
1000
0010
0100
0001
,  // measure 52
1000
0100
1000
0000
0010
0100
0000
0001
,  // measure 53
0010
0000
0100
0010
0002
0000
1003
0020
,  // measure 54
0130
0001
0010
0000
0100
1000
0000
0010
,  // measure 55
0100
0000
0010
1000
0002
0000
1003
0020
,  // measure 56
0130
1000
0100
0000
0010
1000
0000
0001
,  // measure 57
0010
0000
1000
0100
0002
0000
0103
0020
,  // measure 58
0031
0010
0100
0000
0010
0001
0000
0100
,  // measure 59
0010
0000
0000
0000
1000
0000
0001
0000
0000
0000
1000
0000
0001
0010
0100
1000
,  // measure 60
0010
1000
0100
0000
1000
0010
0000
0100
,  // measure 61
0001
0000
0010
0100
2000
0000
3001
0200
,  // measure 62
0310
1000
0100
0000
0010
0100
1000
0000
,  // measure 63
0001
0000
0000
0000
1000
0000
0010
0000
0000
0000
0100
0000
0001
0000
0010
0100
,  // measure 64
1000
0000
0100
0110
0000
0000
0000
0000
,  // measure 65
0000
0101
0000
0000
1100
0000
0010
1001
,  // measure 66
0000
0000
0000
0000
,  // measure 67
0101
0000
0000
0000
1000
0000
0010
0000
0100
0000
0100
0000
0010
1000
0010
0100
,  // measure 68
0001
0010
0100
0010
0001
0100
0010
1000
,  // measure 69
0001
0010
0100
1000
0020
0000
0130
0002
,  // measure 70
0013
0100
0010
0001
1000
0010
1000
0001
,  // measure 71
0010
0100
1000
0100
0020
0000
0130
2000
,  // measure 72
3010
0100
0001
0010
0100
0010
0001
1000
,  // measure 73
0010
1000
0100
0010
0200
0000
1300
0020
,  // measure 74
0130
0010
1000
0001
0010
0100
0010
0001
,  // measure 75
1000
0000
0010
0000
1000
0000
0001
0000
0010
0000
0100
0000
1000
0100
0010
0001
,  // measure 76
1000
0010
0001
0010
0100
0001
0010
0100
,  // measure 77
1000
0100
0001
0100
0020
0000
0031
2000
,  // measure 78
3010
0001
0010
0100
0010
1000
0001
0010
,  // measure 79
1000
0000
0010
0000
0001
0000
0010
0000
0100
0000
1000
0000
0001
0000
1000
0001
,  // measure 80
0200
0000
0310
2000
3001
0010
0100
1000
,  // measure 81
0010
2000
0000
3001
0020
0000
0230
2300
,  // measure 82
3001
0001
1000
0010
0100
0100
0010
1000
,  // measure 83
0100
0100
0010
0001
0100
0100
0010
1000
,  // measure 84
1001
0000
0000
0000
;

//---------------dance-single - ----------------
#NOTES:
     dance-single:
     :
     Easy:
     6:
     0.169620,0.339240,0.024231,0.000000,0.000000,147.000000,144.000000,3.000000,0.000000,0.000000,0.000000,0.169620,0.339240,0.024231,0.000000,0.000000,147.000000,144.000000,3.000000,0.000000,0.000000,0.000000:
// measure 0
0000
0000
0000
0000
,  // measure 1
0000
0000
0000
0000
,  // measure 2
0000
0000
0000
0000
,  // measure 3
0000
0000
0000
0000
,  // measure 4
0000
0000
0000
0000
,  // measure 5
0000
0000
0000
0000
,  // measure 6
0000
0000
0000
0000
,  // measure 7
0000
0000
0000
0000
,  // measure 8
1000
0000
0100
0000
,  // measure 9
0010
0000
0001
0000
,  // measure 10
1000
0000
0100
0000
,  // measure 11
0010
0000
0001
0000
,  // measure 12
1000
0100
0010
0000
,  // measure 13
0100
0010
0001
0000
,  // measure 14
0010
0100
1000
0000
,  // measure 15
0100
0000
0010
0000
0001
0000
1000
0010
,  // measure 16
0100
0000
0000
0000
,  // measure 17
0000
0000
0000
0000
0010
0000
0100
0010
,  // measure 18
0000
0000
0000
0000
,  // measure 19
0000
0000
0000
0000
0100
0000
0010
0100
,  // measure 20
0000
0000
0000
0000
,  // measure 21
0000
0000
0000
0000
0010
0000
0100
0010
,  // measure 22
0000
0000
0000
0000
,  // measure 23
0000
0000
0000
0000
0000
0000
0001
1000
,  // measure 24
0001
0000
0000
0000
,  // measure 25
0000
0000
0000
0000
1000
0000
0001
0100
,  // measure 26
0000
0000
0000
0000
,  // measure 27
0000
0000
0000
0000
0000
0000
0000
0001
,  // measure 28
1000
0000
1000
0100
0000
0000
0000
0000
,  // measure 29
0000
0010
0000
0000
0100
0000
1000
0010
,  // measure 30
0000
0000
0000
0000
,  // measure 31
0000
0000
0000
0000
,  // measure 32
0010
0000
0000
0000
,  // measure 33
1000
0000
0000
0000
,  // measure 34
0100
0000
0000
0000
,  // measure 35
0010
0000
0000
0000
0000
0000
0001
0010
,  // measure 36
0001
0000
0000
0000
,  // measure 37
0001
1000
0000
0001
0000
1000
0000
0001
,  // measure 38
1000
0000
0000
0000
,  // measure 39
0000
0000
0000
0000
0000
0000
0010
0100
,  // measure 40
0001
0000
0000
0000
,  // measure 41
0100
0010
0000
0100
0000
0010
0000
0100
,  // measure 42
0010
0000
0000
0000
,  // measure 43
0000
0000
0000
0000
0000
0000
0100
0010
,  // measure 44
1000
0000
0000
0000
,  // measure 45
0100
1000
0000
0010
0000
1000
0000
0100
,  // measure 46
0010
0000
0000
0000
,  // measure 47
0000
0000
0000
0000
0000
0000
0100
0010
,  // measure 48
0001
0000
0000
0000
,  // measure 49
0010
0001
0000
0100
0000
0001
0000
0010
,  // measure 50
0100
0000
0000
0010
0100
0000
0000
0010
,  // measure 51
0100
0100
0010
0010
,  // measure 52
1001
0000
0000
0000
,  // measure 53
0000
0000
0000
0000
0001
0000
1000
0010
,  // measure 54
0000
0000
0000
0000
,  // measure 55
0000
0000
0000
0000
1000
0000
0001
0010
,  // measure 56
0000
0000
0000
0000
,  // measure 57
0000
0000
0000
0000
0100
0000
1000
0010
,  // measure 58
0000
0000
0000
0000
,  // measure 59
0000
0000
0000
0000
0000
0000
0100
0010
,  // measure 60
0100
0000
0000
0000
,  // measure 61
0000
0000
0000
0000
0010
0000
1000
0001
,  // measure 62
0000
0000
0000
0000
,  // measure 63
0000
0000
0000
0000
0000
0000
0000
0010
,  // measure 64
0100
0000
0010
0001
0000
0000
0000
0000
,  // measure 65
0000
0010
0000
0000
0100
0000
1000
0010
,  // measure 66
0000
0000
0000
0000
,  // measure 67
0100
0000
0010
0000
,  // measure 68
1001
0000
0000
0000
,  // measure 69
0000
0000
0000
0000
0001
0000
1000
0100
,  // measure 70
0000
0000
0000
0000
,  // measure 71
0000
0000
0000
0000
0010
0000
0001
0010
,  // measure 72
0000
0000
0000
0000
,  // measure 73
0000
0000
0000
0000
0100
0000
1000
0100
,  // measure 74
0000
0000
0000
0000
,  // measure 75
0000
0000
0000
0000
0000
0000
0010
0001
,  // measure 76
1000
0000
0000
0000
,  // measure 77
0000
0000
0000
0000
0001
0000
0100
0010
,  // measure 78
0000
0000
0000
0000
,  // measure 79
0000
0000
0000
0000
0000
0000
0000
1000
,  // measure 80
0100
0000
0010
0100
0000
0000
0000
0000
,  // measure 81
0000
0010
0000
0000
0001
0000
1000
0010
,  // measure 82
0000
0000
0000
0000
,  // measure 83
0000
0000
0000
0000
,  // measure 84
1001
0000
0000
0000
;

//---------------dance-single - ----------------
#NOTES:
     dance-single:
     :
     Medium:
     10:
     0.407319,0.474937,0.032309,0.000000,0.000000,353.000000,349.000000,4.000000,0.000000,0.000000,0.000000,0.407319,0.474937,0.032309,0.000000,0.000000,353.000000,349.000000,4.000000,0.000000,0.000000,0.000000:
// measure 0
0000
0000
0000
0000
,  // measure 1
0000
0000
0000
0000
,  // measure 2
0000
0000
0000
0000
,  // measure 3
0000
0000
0000
0000
,  // measure 4
0000
0000
0000
0000
,  // measure 5
0000
0000
0000
0000
,  // measure 6
0000
0000
0000
0000
,  // measure 7
0000
0000
0000
0000
,  // measure 8
1000
1000
1000
1000
,  // measure 9
0001
0001
0001
0001
,  // measure 10
0100
0100
0100
0100
,  // measure 11
0010
0010
0010
0010
,  // measure 12
1000
0010
1000
0010
,  // measure 13
0100
0001
0100
0001
,  // measure 14
0010
0001
0010
0001
,  // measure 15
0010
0000
0000
0100
0000
0000
1000
0100
,  // measure 16
0010
0000
0100
0000
0000
1000
0010
0000
,  // measure 17
0100
0000
0010
0000
1000
0000
0010
0100
,  // measure 18
0001
0000
0010
0000
0000
0100
0010
0000
,  // measure 19
0001
0000
1000
0000
0001
0000
1000
0100
,  // measure 20
0010
0000
0100
0000
0000
0010
0001
0000
,  // measure 21
0100
0000
0010
0000
1000
0000
0001
1000
,  // measure 22
0100
0000
1000
0000
0000
0100
1000
0000
,  // measure 23
0010
0000
0100
0001
0000
0001
0010
0100
,  // measure 24
1000
0000
0100
0000
0000
1000
0010
0000
,  // measure 25
0100
0000
0001
0000
1000
0000
0001
0100
,  // measure 26
0001
0000
0010
0000
0000
0100
1000
0000
,  // measure 27
0100
0000
1000
0010
0000
0010
0100
0010
,  // measure 28
1000
0000
0001
0010
0000
0000
0000
0000
,  // measure 29
0000
1000
0000
0000
0010
0000
0001
0100
,  // measure 30
0010
0100
0001
1000
,  // measure 31
1001
0010
1001
0100
,  // measure 32
1001
0001
1000
0001
,  // measure 33
0100
0010
0100
0010
,  // measure 34
1000
0010
1000
0010
,  // measure 35
0100
0000
0001
0000
0100
0000
0001
0010
,  // measure 36
0100
0010
0001
1000
,  // measure 37
0100
1000
0000
0010
0000
0100
0000
0001
,  // measure 38
1000
0100
1000
0010
,  // measure 39
0100
0000
0001
0000
1000
0000
0001
0100
,  // measure 40
1000
0100
0010
1000
,  // measure 41
0001
0010
0000
0100
0000
0010
0000
0001
,  // measure 42
0010
0001
1000
0100
,  // measure 43
1000
0000
0001
0000
1000
0000
0001
0010
,  // measure 44
1000
0010
0001
0100
,  // measure 45
0010
1000
0000
0010
0000
0100
0000
0001
,  // measure 46
1000
0100
1000
0010
,  // measure 47
0100
0000
0001
0000
0010
0000
0100
0010
,  // measure 48
0001
0010
0100
1000
,  // measure 49
0100
1000
0000
0010
0000
0100
0000
0001
,  // measure 50
0100
0000
0000
1000
0100
0000
0000
0001
,  // measure 51
0100
1000
0100
0001
0100
1000
0100
0001
,  // measure 52
1000
0000
0001
0000
0000
0010
0001
0000
,  // measure 53
0010
0000
0100
0000
1000
0000
0100
1000
,  // measure 54
0010
0000
0100
0000
0000
0010
1000
0000
,  // measure 55
0001
0000
0010
0000
0100
0000
0010
0001
,  // measure 56
1000
0000
0100
0000
0000
1000
0010
0000
,  // measure 57
0100
0000
0001
0000
1000
0000
0001
0010
,  // measure 58
0100
0000
0010
0000
0000
0100
1000
0000
,  // measure 59
0100
0000
1000
0010
0000
0100
0010
1000
,  // measure 60
0001
0000
0100
0000
0000
0001
0010
0000
,  // measure 61
0100
0000
0010
0000
0001
0000
1000
0001
,  // measure 62
0100
0000
0001
0000
0000
0010
0100
0000
,  // measure 63
0010
0000
0001
0010
0000
0100
1000
0010
,  // measure 64
1000
0000
0001
0010
0000
0000
0000
0000
,  // measure 65
0000
0100
0000
0000
0010
0000
0001
1000
,  // measure 66
0100
1000
0010
0100
,  // measure 67
0001
0000
1000
0001
1000
0001
1000
0100
,  // measure 68
0010
0100
1000
0000
0100
0010
0000
0100
,  // measure 69
1000
0000
0100
0010
0000
0100
1000
0000
,  // measure 70
0000
0001
0100
0000
0001
1000
0000
0001
,  // measure 71
0010
0000
0001
1000
0000
0001
1000
0000
,  // measure 72
0000
0001
0100
0000
1000
0100
0000
0001
,  // measure 73
0100
0000
1000
0100
0000
0001
0010
0000
,  // measure 74
0000
0100
1000
0000
0100
1000
0000
0100
,  // measure 75
0010
0000
0100
0010
0000
0100
0010
0001
,  // measure 76
1000
0001
0100
0000
0001
1000
0000
0001
,  // measure 77
0010
0000
0001
1000
0000
0001
0100
0000
,  // measure 78
0000
0001
0010
0000
0100
1000
0000
0100
,  // measure 79
0010
0000
0100
1000
0000
0010
0100
0001
,  // measure 80
1000
0000
0001
0010
0000
0000
0000
0000
,  // measure 81
0000
0100
0000
0000
0010
0000
0001
0100
,  // measure 82
0010
1000
0001
0100
,  // measure 83
0001
0010
0100
1000
,  // measure 84
1001
0000
0000
0000
;

//---------------dance-single - ----------------
#NOTES:
     dance-single:
     :
     Beginner:
     4:
     0.100387,0.271392,0.040386,0.000000,0.000000,87.000000,82.000000,5.000000,0.000000,0.000000,0.000000,0.100387,0.271392,0.040386,0.000000,0.000000,87.000000,82.000000,5.000000,0.000000,0.000000,0.000000:
// measure 0
0000
0000
0000
0000
,  // measure 1
0000
0000
0000
0000
,  // measure 2
0000
0000
0000
0000
,  // measure 3
0000
0000
0000
0000
,  // measure 4
0000
0000
0000
0000
,  // measure 5
0000
0000
0000
0000
,  // measure 6
0000
0000
0000
0000
,  // measure 7
0000
0000
0000
0000
,  // measure 8
1000
0000
0000
0000
,  // measure 9
0100
0000
0000
0000
,  // measure 10
0010
0000
0000
0000
,  // measure 11
0001
0000
0000
0000
,  // measure 12
0100
0000
0000
0000
,  // measure 13
0010
0000
0000
0000
,  // measure 14
1000
0000
0000
0000
,  // measure 15
0001
0000
0000
1000
,  // measure 16
1001
0000
0000
0000
,  // measure 17
0000
0000
0001
0000
,  // measure 18
0000
0000
0000
0000
,  // measure 19
0000
0000
0001
0000
,  // measure 20
0000
0000
0000
0000
,  // measure 21
0000
0000
1000
0000
,  // measure 22
0000
0000
0000
0000
,  // measure 23
0000
0000
0000
0010
,  // measure 24
0100
0000
0000
0000
,  // measure 25
0000
0000
0010
0000
,  // measure 26
0000
0000
0000
0000
,  // measure 27
0000
0000
0000
0000
,  // measure 28
0100
0000
0000
0000
,  // measure 29
0001
0000
0000
0000
,  // measure 30
1000
0000
0000
0000
,  // measure 31
0010
0000
0100
0000
,  // measure 32
1001
0000
0000
0000
,  // measure 33
1000
0000
0000
0000
,  // measure 34
0001
0000
0000
0000
,  // measure 35
1000
0000
0000
0010
,  // measure 36
0100
0000
0000
0000
,  // measure 37
0010
0000
0000
0000
,  // measure 38
0000
0000
0000
0000
,  // measure 39
0000
0000
0000
1000
,  // measure 40
0100
0000
0000
0000
,  // measure 41
0010
0000
0000
0000
,  // measure 42
0000
0000
0000
0000
,  // measure 43
0000
0000
0000
0001
,  // measure 44
0100
0000
0000
0000
,  // measure 45
0010
0000
0000
0000
,  // measure 46
0000
0000
0000
0000
,  // measure 47
0000
0000
0000
0100
,  // measure 48
0001
0000
0000
0000
,  // measure 49
0010
0000
0000
0000
,  // measure 50
0100
0000
0010
0000
,  // measure 51
0001
1000
0001
1000
,  // measure 52
1001
0000
0000
0000
,  // measure 53
0000
0000
0010
1000
,  // measure 54
0100
0000
0000
0000
,  // measure 55
0000
0000
0010
0001
,  // measure 56
0100
0000
0000
0000
,  // measure 57
0000
0000
0010
0100
,  // measure 58
0010
0000
0000
0000
,  // measure 59
0000
0000
0000
0100
,  // measure 60
0001
0000
0000
0000
,  // measure 61
0000
0000
1000
0001
,  // measure 62
0010
0000
0000
0000
,  // measure 63
0000
0000
0000
0000
,  // measure 64
0001
0000
0000
0000
,  // measure 65
1000
0000
0000
0000
,  // measure 66
0010
0000
0000
0000
,  // measure 67
0100
0000
0000
0010
,  // measure 68
1001
0000
0000
0000
,  // measure 69
0000
0000
1000
0001
,  // measure 70
0010
0000
0000
0000
,  // measure 71
0000
0000
0100
1000
,  // measure 72
0010
0000
0000
0000
,  // measure 73
0000
0000
0100
0001
,  // measure 74
0010
0000
0000
0000
,  // measure 75
0000
0000
0000
0100
,  // measure 76
0100
0000
0000
0000
,  // measure 77
0000
0000
0010
0100
,  // measure 78
1000
0000
0000
0000
,  // measure 79
0000
0000
0000
0000
,  // measure 80
0100
0000
0000
0000
,  // measure 81
0010
0000
0000
0000
,  // measure 82
0001
0000
0000
0000
,  // measure 83
0000
0000
0000
0000
,  // measure 84
1001
0000
0000
0000
;
