#TITLE:CUTIE CHASER;
#SUBTITLE:;
#ARTIST:CLUB SPICE;
#TITLETRANSLIT:;
#SUBTITLETRANSLIT:;
#ARTISTTRANSLIT:;
#GENRE:HOUSE;
#CREDIT:;
#BANNER:CUTIE CHASER.png;
#BACKGROUND:CUTIE CHASER-bg.png;
#LYRICSPATH:;
#CDTITLE:;
#MUSIC:CUTIE CHASER.ogg;
#OFFSET:0.000000;
#SAMPLESTART:36.153000;
#SAMPLELENGTH:15.000000;
#SELECTABLE:YES;
#DISPLAYBPM:126.000000;
#BPMS:0.000000=126.227005
,10.000000=126.128998
;
#STOPS:
;
#BGCHANGES:;
#KEYSOUNDS:;
#ATTACKS:;

//---------------dance-single - ----------------
#NOTES:
     dance-single:
     :
     Hard:
     12:
     0.554261,0.564224,0.659682,0.391337,0.318660,347.000000,288.000000,59.000000,35.000000,0.000000,0.000000,0.554261,0.564224,0.659682,0.391337,0.318660,347.000000,288.000000,59.000000,35.000000,0.000000,0.000000:
0000
0000
0000
0000
,
0000
0000
0000
0000
,
0000
0000
0000
0000
1001
0000
0000
0110
,
0000
0110
0000
0000
1001
0110
0000
1001
,
2010
0000
3100
0110
0000
0011
0001
0000
,
1001
0110
0200
0000
0301
0001
1000
1000
,
0001
0001
1001
0000
0110
1001
0000
0110
,
1002
0000
0000
0000
0000
0000
0000
0000
1003
0000
0001
0000
0100
0000
0000
0010
,
0100
0000
0001
0000
1000
0000
0000
0000
1200
0000
0000
0000
0310
0000
0000
0100
,
1000
0001
1000
0000
0010
1000
0000
0100
,
0120
0000
0000
0031
0100
0000
0001
0000
1000
0000
0000
0000
1200
0000
0000
0310
,
0001
0000
1000
0000
0010
0000
0000
0000
0210
0000
0000
0301
1000
0000
0100
0000
,
0010
0000
0000
0000
0021
0000
0000
0130
1000
0000
0001
0000
1000
0000
0000
0000
,
0001
0000
0100
0010
0000
0100
0010
1000
0100
0000
1000
0000
0001
0000
0010
0001
,
0000
0001
0100
0010
2000
0000
0000
0000
3001
0000
1000
0001
0000
1000
0001
0010
,
0100
0000
1000
0000
0001
0000
0100
0010
0000
0010
1000
0001
0020
0000
0000
0000
,
0130
0000
0010
0001
0000
0010
0001
0100
0010
0000
0100
0000
0001
0000
1000
0001
,
0000
0001
0010
0100
0020
0000
0000
0000
0130
0000
1000
0100
0000
1000
0100
0010
,
0100
0000
1000
0000
0010
0000
0100
0001
0000
0001
0010
0000
0200
0000
0000
0000
,
2300
0000
3010
0001
0010
1000
0210
0000
,
0302
0000
2003
0000
3001
0100
1000
0100
,
0001
0100
1100
0000
0101
0000
0000
0000
,
2001
0000
3001
0010
1000
0010
0021
0000
,
0230
0000
2300
0000
3010
0010
0100
0010
,
0010
0100
0020
0000
2000
0000
3030
0000
,
0101
0000
0000
0011
0000
1100
0000
0000
,
0101
0000
1100
0000
0000
0000
1100
0000
1001
0000
0000
1000
0001
0000
0100
0000
,
0000
0000
0010
0000
1001
0000
0000
1000
0100
0000
0010
0000
0000
0000
0100
0000
,
1100
0000
0000
0001
0100
0000
0010
0000
0000
0000
1000
0000
1001
0000
0000
1000
,
0100
0010
0000
0100
1200
0000
0001
0000
,
1300
1020
0001
1030
,
2010
0001
3010
0102
,
1000
0000
0000
0000
0103
0000
0000
0000
0001
0000
0010
0100
0000
0010
0100
0010
,
0001
0000
1000
0000
0001
0000
0100
0001
0000
0001
0010
0100
0020
0000
0000
0000
,
0130
0000
0010
0001
0000
0001
0010
0100
0010
0000
0001
0000
1000
0000
0010
1000
,
0000
1000
0010
0100
0020
0000
0000
0000
1030
0000
0001
0010
0000
0010
0001
1000
,
0100
0000
0010
0000
0100
0000
1000
0010
0000
0010
0100
0010
2000
0000
0000
0000
,
3100
0000
0010
0100
0000
0100
0010
0001
1000
0000
0010
0000
0100
0000
0001
0100
,
0000
0100
0010
1000
0001
0000
0000
0000
1200
0000
0000
0000
0301
0000
0100
0000
,
1000
0100
0001
0000
0101
0000
1100
0000
,
1010
0010
0001
0010
1000
0010
0200
0000
,
0302
0000
0003
0000
1002
0000
1003
0100
,
0001
0100
1100
0000
0101
0000
1100
0000
,
1001
1000
1001
0001
1001
1000
1001
0000
,
0220
0000
0330
0000
0101
0000
0000
1010
,
0000
0011
0000
0000
1010
0011
0000
1001
;

//---------------dance-single - ----------------
#NOTES:
     dance-single:
     :
     Medium:
     8:
     0.378559,0.461638,0.559053,0.122992,0.000000,237.000000,187.000000,50.000000,11.000000,0.000000,0.000000,0.378559,0.461638,0.559053,0.122992,0.000000,237.000000,187.000000,50.000000,11.000000,0.000000,0.000000:
0000
0000
0000
0000
,
0000
0000
0000
0000
,
0000
0000
0000
0000
1001
0000
0000
0110
,
0000
0110
0000
0000
1000
1001
0000
0000
,
0001
1000
1000
0001
,
0020
0032
0103
0001
,
0010
0001
2000
3000
,
1001
0000
0000
0000
0001
1000
0001
0000
,
1000
0010
1000
0010
,
0100
0001
0100
0000
0001
0000
0010
0000
,
0110
0100
0010
1100
,
0010
0001
1010
1000
,
0100
0011
0001
1000
,
0001
0000
0100
0000
0010
1000
0100
0000
,
0010
0002
1003
0001
,
0100
0001
0010
0000
0100
0000
0020
0000
,
0130
0000
0010
0000
0100
1000
0010
0000
,
0100
0002
1003
0001
,
1000
0001
0010
0000
0100
0000
0020
0000
,
0031
0100
0001
1000
,
1001
0110
1001
0001
,
0001
1001
0110
0000
,
1010
1000
0010
0100
,
0101
0000
0011
0000
0001
1000
0001
1000
,
0001
1000
0001
0000
1001
0000
0000
0000
,
1010
0000
0000
0101
0000
1010
0000
0000
,
0101
1010
0000
1010
0101
0000
1001
0001
,
0000
1000
0001
0000
0011
0001
0000
1000
,
0001
0000
0101
0001
0000
1000
0100
0000
,
0110
0100
0000
1000
1100
0000
0010
0000
,
0001
0011
0001
0100
,
0101
0010
1000
1010
,
0001
1000
1000
0001
,
0010
0001
0100
0000
0010
0000
2000
0000
,
3100
0000
0010
0000
0100
1000
0010
0000
,
0100
0002
1003
0001
,
0010
0001
0100
0000
0001
0000
2000
0000
,
3100
0000
1000
0000
0100
1000
0010
0000
,
0100
0020
1030
0001
,
0010
0001
0101
1100
,
0101
0001
0001
0101
,
1010
0000
1001
1000
,
0100
0110
1100
0110
,
0010
0001
0010
0001
0010
0001
0011
0000
,
1100
0000
0000
0000
1001
0000
0000
1010
,
0000
0101
0000
0000
0011
1100
0000
1001
;

//---------------dance-single - ----------------
#NOTES:
     dance-single:
     :
     Easy:
     6:
     0.303486,0.435991,0.424880,0.089448,0.000000,190.000000,152.000000,38.000000,8.000000,0.000000,0.000000,0.303486,0.435991,0.424880,0.089448,0.000000,190.000000,152.000000,38.000000,8.000000,0.000000,0.000000:
0000
0000
0000
0000
,
0000
0000
0000
0000
,
0000
0000
0000
0000
1001
0000
0000
0001
,
0000
1000
0000
0000
0010
0100
0000
0010
,
1000
0001
0010
0001
,
1000
0001
0100
0100
,
0100
0100
0100
0000
,
1001
0000
1000
0001
,
0010
0001
1000
0100
,
1000
0010
0100
0001
,
1001
0000
0000
1010
,
0000
0000
0011
0000
,
0000
1100
0000
0000
,
0100
1000
0010
1000
,
0100
0020
0031
0100
,
0001
0010
0001
2000
,
3001
0100
0001
0010
,
0001
0200
0310
1000
,
0100
1000
0001
0200
,
0301
0010
0001
1000
,
1001
0110
1001
0001
,
0001
1001
0110
0000
,
1001
1000
0001
1001
,
0110
1001
1000
1000
,
1000
1001
0110
0000
,
0010
0000
0000
0100
0000
0001
0000
0000
,
1000
0100
0000
0010
0001
0000
1100
0000
,
0000
0000
0011
0000
,
0000
0101
0000
0000
,
1010
0000
1001
0001
,
1000
1010
1000
0100
,
0110
0010
0001
0101
,
0001
0000
1000
0001
,
0010
0001
0100
0020
,
1030
0100
0010
0100
,
1000
0002
1003
0100
,
0010
0100
1000
0200
,
1300
0010
0100
0001
,
1000
0020
0130
0001
,
0010
0100
1100
1100
,
1100
0100
0100
0100
,
0010
0000
0011
0001
,
0100
0110
1010
0110
,
1001
1001
1001
0110
,
1001
0000
0000
0000
0001
0000
0000
1000
,
0000
0010
0000
0000
0100
0010
0000
1001
;

//---------------dance-single - ----------------
#NOTES:
     dance-single:
     :
     Beginner:
     3:
     0.115005,0.179526,0.055905,0.011181,0.000000,72.000000,67.000000,5.000000,1.000000,0.000000,0.000000,0.115005,0.179526,0.055905,0.011181,0.000000,72.000000,67.000000,5.000000,1.000000,0.000000,0.000000:
0000
0000
0000
0000
,
0000
0000
0000
0000
,
0000
0000
0000
0000
,
0000
0000
0000
0000
,
0010
0000
0000
0000
,
1000
0000
0001
0000
,
0000
0000
0010
0000
,
0200
0000
0300
0000
,
0000
0000
1000
0000
,
0000
0000
0000
0000
,
0100
0000
0000
1000
,
0000
0000
0010
0000
,
0000
0100
0000
0000
,
0001
0000
0000
1000
,
0000
0000
0001
0000
,
0000
0010
0000
0000
,
0100
0000
0000
0010
,
0000
0000
0001
0000
,
0000
1000
0000
0000
,
0010
0000
0000
0000
,
1000
1000
0001
0000
,
0000
1000
1000
0000
,
0001
0000
0000
0100
,
0100
0100
0010
0000
,
0000
0010
0010
0000
,
1001
0000
0000
0000
,
0110
0000
0000
1000
,
0000
0000
1000
0000
,
0000
1000
0000
0000
,
1000
0000
0001
0000
,
0000
0010
0000
0000
,
0001
0000
0000
0100
,
0000
0000
0010
0000
,
1000
0000
0000
0001
,
1000
0000
0000
0100
,
0000
0000
0010
0000
,
0000
0100
0000
0000
,
1000
0000
0000
0010
,
0000
0000
0100
0000
,
0000
0010
0000
0000
,
1000
1000
1000
0001
,
1000
0000
0010
0000
,
0000
1000
0000
0000
,
0001
0001
0001
1000
,
0001
0000
1001
0000
,
0000
0000
0000
0000
0110
0000
0000
1001
;
