#TITLE:Blinding Lights (Eurodance Remix);
#SUBTITLE:;
#ARTIST:The Weeknd;
#TITLETRANSLIT:;
#SUBTITLETRANSLIT:;
#ARTISTTRANSLIT:;
#GENRE:;
#CREDIT:;
#BANNER:;
#BACKGROUND:Blinding Lights (Eurodance Remix)-bg.png;
#LYRICSPATH:;
#CDTITLE:;
#MUSIC:Blinding Lights (Eurodance Remix).ogg;
#OFFSET:0.005000;
#SAMPLESTART:66.186897;
#SAMPLELENGTH:24.827583;
#SELECTABLE:YES;
#BPMS:0.000000=145.000000
;
#STOPS:152.000000=0.414000,
153.000000=0.621000,
153.500000=0.414000,
154.000000=0.207000
;
#BGCHANGES:;
#KEYSOUNDS:;
#ATTACKS:;

//---------------dance-single - ----------------
#NOTES:
     dance-single:
     :
     Hard:
     12:
     0.423803,0.519158,0.263700,0.234400,0.194112,405.000000,369.000000,36.000000,32.000000,0.000000,0.000000,0.423803,0.519158,0.263700,0.234400,0.194112,405.000000,369.000000,36.000000,32.000000,0.000000,0.000000:
// measure 0
0000
0000
0000
0000
,  // measure 1
0000
0000
0000
0000
,  // measure 2
0000
0000
0000
0000
,  // measure 3
0000
0000
0000
0000
,  // measure 4
0000
0000
0000
0000
,  // measure 5
0000
0000
0000
0000
,  // measure 6
0000
0000
0000
0000
,  // measure 7
0220
0000
0330
0000
,  // measure 8
1000
0000
0000
0000
1000
0000
0000
1000
,  // measure 9
0001
1000
0000
0010
0000
0100
0000
0000
,  // measure 10
0010
0000
0000
0000
0010
0000
0000
0010
,  // measure 11
0100
0010
0000
0100
0000
0010
0000
0000
,  // measure 12
1000
0001
0000
0010
0000
0011
0000
0000
,  // measure 13
0001
1000
0000
0100
0000
0110
0000
1100
,  // measure 14
1000
0001
0100
0010
,  // measure 15
1000
0000
0000
0000
0001
0000
0000
0010
0100
0000
1000
0000
0100
0000
0010
0001
,  // measure 16
1000
0010
1000
0001
,  // measure 17
0010
0000
0100
0000
0010
0001
0100
0001
,  // measure 18
1000
0100
1000
0010
,  // measure 19
0100
0000
0001
0000
0010
0001
0100
0010
,  // measure 20
1000
0100
0010
0100
,  // measure 21
1000
0001
1100
0101
,  // measure 22
1100
0100
1100
0101
,  // measure 23
1100
0000
0000
0000
0100
0000
0000
0000
0010
0000
0000
0000
0001
1000
0001
1000
,  // measure 24
0001
0100
0010
0000
0100
0010
1000
0000
,  // measure 25
0100
0010
0001
0000
0010
0001
0100
0001
,  // measure 26
1000
0100
0010
0000
0100
1000
0010
0000
,  // measure 27
0100
0010
1000
0000
0010
1000
0001
0010
,  // measure 28
0100
0010
0001
0000
0010
0001
1000
0000
,  // measure 29
0001
1000
0100
0000
0110
0000
1100
0000
,  // measure 30
1010
0010
1010
0011
,  // measure 31
1002
0000
0000
0000
0103
0000
0010
1000
,  // measure 32
0001
0000
1000
0000
0001
0200
0000
0010
,  // measure 33
0000
0010
0000
0001
0000
0002
0000
0303
,  // measure 34
1000
0000
0001
0000
0010
0200
0000
0010
,  // measure 35
0000
0010
0000
1000
0000
2000
0000
3300
,  // measure 36
0001
0000
1000
0000
0100
2000
0000
0010
,  // measure 37
0000
0010
0000
0001
0000
0001
0000
3000
,  // measure 38
0110
1000
1000
0101
0011
1010
0000
0000
,  // measure 39
0102
0100
0100
0100
,  // measure 40
0010
0010
0010
2003
,  // measure 41
3020
0000
1030
0200
0000
0310
0002
0000
,  // measure 42
0010
0000
0013
0000
0010
0100
1000
0000
,  // measure 43
0001
1000
0000
1100
0000
0022
0000
0033
,  // measure 44
0001
0100
0000
1010
0000
0202
0000
0000
,  // measure 45
0003
0310
0100
0001
,  // measure 46
1000
0000
0100
0000
0010
0000
0001
1000
,  // measure 47
2010
0010
0010
0010
,  // measure 48
0001
0001
0001
3200
,  // measure 49
1300
0000
0100
2000
0000
3010
0200
0000
,  // measure 50
0010
0000
0310
0000
0100
0000
0010
1000
,  // measure 51
0001
1000
0000
1010
0000
2200
0000
3300
,  // measure 52
1000
0001
0000
0011
0000
0010
0200
0000
,  // measure 53
1000
0310
0100
0010
,  // measure 54
0110
0000
0000
0000
0010
0000
0000
0000
1001
0000
0000
1000
0010
0000
1000
0000
,  // measure 55
0001
0000
0000
1000
0100
0000
0000
0100
0010
0000
0000
0010
0001
0000
0000
0001
,  // measure 56
0100
0000
0000
0100
0010
0000
0000
0010
1000
0000
0100
0000
0010
0000
0001
0000
,  // measure 57
1000
0000
0000
1000
0010
0000
0000
0010
0100
0000
0000
0100
0001
0000
0000
0001
,  // measure 58
1000
0000
0000
1000
0100
0000
0000
0100
0010
0000
0100
0000
1000
0000
0010
0000
,  // measure 59
0100
0000
0000
0010
1000
0000
0000
1000
0100
0000
0000
0100
1000
0000
0000
1000
,  // measure 60
0100
0000
0000
0100
0010
0000
0000
0010
0001
0000
0010
0000
0100
0000
1000
0000
,  // measure 61
0001
0000
0000
0001
1000
0000
0000
1000
0010
0000
0000
0010
1000
0000
0000
1000
,  // measure 62
0001
0000
0000
0001
0100
0000
0000
0100
0001
0000
0010
0000
0100
0000
1000
0000
,  // measure 63
0100
0000
0000
0100
1000
0000
0000
1000
0100
0000
0000
0100
0010
0000
0000
0010
,  // measure 64
0001
0000
0000
0001
0010
0000
0000
0010
0100
0000
0010
0000
0001
0000
0100
0000
,  // measure 65
0010
0000
0000
0010
0100
0000
0000
0100
0001
0000
0000
0001
1000
0000
0000
1000
,  // measure 66
0100
0000
0000
0100
1000
0000
0000
1000
0100
0000
0010
0000
0001
0000
0010
0000
,  // measure 67
0100
0000
0000
1000
0100
0000
0000
0100
0010
0000
0000
0010
0001
0000
0000
0001
,  // measure 68
0010
0000
0000
0010
0100
0000
0000
0100
1000
0000
0100
0000
0010
0000
0001
0000
,  // measure 69
0010
0000
0000
0100
1000
0000
0000
0010
0100
0000
0000
0001
1000
0000
0000
0001
,  // measure 70
0010
0000
0000
0010
0100
0000
0000
0100
0010
0000
0001
0000
0100
0000
0010
0000
,  // measure 71
2001
0000
0000
0000
,  // measure 72
0000
0000
0000
3002
,  // measure 73
0103
0000
1000
0100
0000
0010
2000
0000
,  // measure 74
0000
0000
0000
0000
3000
0002
0000
0000
,  // measure 75
0013
0100
0000
0110
0000
2200
0000
3300
,  // measure 76
1000
0100
0000
0110
0000
1002
0000
0000
,  // measure 77
0000
0023
0030
0100
,  // measure 78
0000
0100
0000
0100
;

//---------------dance-single - ----------------
#NOTES:
     dance-single:
     :
     Medium:
     9:
     0.336949,0.491873,0.336949,0.234400,0.000000,322.000000,276.000000,46.000000,32.000000,0.000000,0.000000,0.336949,0.491873,0.336949,0.234400,0.000000,322.000000,276.000000,46.000000,32.000000,0.000000,0.000000:
0000
0000
0000
0000
,
0000
0000
0000
0000
,
0000
0000
0000
0000
,
0000
0000
0000
0000
,
0000
0000
0000
0000
,
0000
0000
0000
0000
,
0000
0000
0000
0000
,
0000
0000
0000
0000
,
0001
0000
0000
0000
0001
0000
0000
0100
,
0001
0100
0000
0001
0000
1000
0000
0000
,
1000
0000
0000
0000
1000
0000
0000
1000
,
0100
1000
0000
0001
0000
1000
0000
0000
,
1000
0100
0000
0110
0000
1100
0000
0000
,
0100
0010
0000
0011
0000
0110
0000
0011
,
0001
0010
0100
1000
,
0001
0000
0100
0000
0010
1000
0100
0010
,
0001
1000
0010
1000
,
0100
0000
1000
0000
0010
1000
0010
1000
,
0010
1000
0001
0010
,
0100
0000
0010
0000
0001
0100
0001
0100
,
0001
0100
0001
0010
,
0001
1000
1001
0110
,
2002
3003
1001
0110
,
2002
0000
3003
1000
0100
0010
0100
1000
,
0010
1000
0010
0100
,
0001
0000
0010
0000
0100
0010
0001
0010
,
0100
0010
0001
1000
,
0010
0000
0100
0000
0010
0100
0010
1000
,
0100
0010
0100
1000
,
0001
1000
1010
0101
,
1010
0000
0011
1100
,
0022
0000
0033
0000
,
1001
0000
0001
0000
0100
0001
0000
0011
,
0000
1010
0000
1001
0000
2200
0000
0000
,
3300
0000
0100
0000
1000
0010
0000
0110
,
0000
0101
0000
1010
0000
0202
0000
0000
,
0303
0000
0001
0000
1000
0100
0000
1010
,
0000
0110
0000
0101
0000
1010
0000
0000
,
1001
0000
1010
0101
0001
1000
0000
0000
,
0102
0100
0100
0100
,
0100
0100
0100
0203
,
0310
0000
1000
0001
0000
0100
0020
0000
,
1000
1000
1000
1030
,
0001
1000
0000
1001
0000
0202
0000
0303
,
0001
1000
0000
1100
0000
0012
0000
0000
,
0000
1003
0001
0100
,
0010
0000
1000
0000
0010
0000
0100
0001
,
2001
0010
0010
0010
,
0010
0010
0010
3020
,
0130
0000
0010
1000
0000
0001
0200
0000
,
0001
0001
0301
1000
,
0010
0100
0000
0110
0000
2020
0000
3030
,
1000
0001
0000
0011
0000
1020
0000
0000
,
0000
0130
0001
0010
,
0100
0000
0010
0000
0001
1000
0010
1000
,
0100
1000
0010
0100
,
0001
0000
0010
0000
0100
0010
0001
1000
,
0010
1000
0001
0010
,
0100
0000
0010
0000
0001
0010
0100
1000
,
0100
1000
0010
0100
,
0010
1000
0001
2002
,
0000
0000
0000
0000
,
3003
0000
0000
0000
1000
0010
0100
0001
,
0010
0100
0010
0001
,
1000
0000
0100
0000
0010
0100
1000
0010
,
0100
0010
1000
0001
,
0010
0000
0100
0000
0010
0001
1000
0100
,
0010
0100
1000
0010
,
0100
0001
1001
0220
,
0000
0000
0000
0000
,
0330
0000
0000
0000
1000
0000
0001
0100
,
0020
0000
0000
0000
,
0000
0000
0000
0130
,
0001
0000
1000
0010
0000
0100
0002
0000
,
0000
0000
0000
0003
0000
0020
0000
0030
,
0100
1000
0000
0100
0000
2000
0000
0000
,
3100
1000
0000
0001
0000
0200
0000
0000
,
0000
0020
0000
0000
,
0000
0000
0000
0000
,
0330
0000
0000
0000
;

//---------------dance-single - ----------------
#NOTES:
     dance-single:
     :
     Easy:
     6:
     0.160103,0.230737,0.073250,0.183125,0.000000,153.000000,143.000000,10.000000,25.000000,0.000000,0.000000,0.160103,0.230737,0.073250,0.183125,0.000000,153.000000,143.000000,10.000000,25.000000,0.000000,0.000000:
0000
0000
0000
0000
,
0000
0000
0000
0000
,
0000
0000
0000
0000
,
0000
0000
0000
0000
,
0000
0000
0000
0000
,
0000
0000
0000
0000
,
0000
0000
0000
0000
,
0000
0000
0000
0000
,
0010
0000
0010
0000
,
0010
0000
0000
0000
,
0010
0000
0010
0000
,
0010
0000
0000
0000
,
1001
0000
0000
0000
,
0110
0000
0000
0000
,
1000
0000
0000
0000
,
0000
0000
0001
1000
,
0010
0000
0000
0000
,
0000
0000
0100
0010
,
1000
0000
0000
0001
0000
0000
0100
0000
,
0000
0000
0001
1000
,
0001
0000
0000
1000
0000
0000
0010
0000
,
0000
0000
0100
0100
,
0100
0000
0100
0100
,
0100
0000
0010
0100
,
1001
0000
0000
0000
,
0000
0000
0001
0010
,
0001
0000
0000
1000
0000
0000
0100
0000
,
0000
0000
0010
0100
,
1000
0000
0000
0010
0000
0000
1000
0000
,
0000
0000
0001
0001
,
0001
0000
0001
0001
,
1001
0000
0010
0100
,
0000
0000
0001
0000
0100
0000
0000
0001
,
0000
0010
0000
0001
0000
0020
0000
0000
,
0030
0000
0100
0000
1000
0000
0000
0100
,
0000
1000
0000
0001
0000
2000
0000
0000
,
3000
0000
0001
0000
1000
0000
0000
0010
,
0000
1000
0000
0010
0000
0100
0000
0000
,
2002
0000
0000
0000
0000
3003
0000
0000
,
0220
0000
0000
0000
,
0000
0000
0330
1001
,
1000
0000
0000
0001
0000
0000
0020
0000
,
0000
0030
0000
0000
,
0100
0000
0000
1000
0000
0001
0000
0000
,
0100
0000
0000
0010
0000
2000
0000
0000
,
0000
3100
0000
0000
,
0000
0000
0000
0001
0000
1000
0000
0000
,
0022
0000
0000
0000
,
0000
0000
0033
0100
,
0001
0000
0000
0001
0000
0000
2000
0000
,
0000
0000
3000
0000
0000
0001
0000
0000
,
0010
0000
0000
0001
0000
0100
0000
0000
,
0010
0000
0000
0100
0000
0000
0002
0000
,
0000
1003
0000
0000
,
0000
0000
0001
1000
,
0010
1000
0100
0020
,
0000
0030
0100
1000
,
0001
0100
0010
2000
,
0000
3000
0000
0001
,
1000
0100
1000
0020
,
0000
0030
0100
2002
,
0000
0000
0000
0000
,
3003
0000
0001
1000
,
0010
1000
0100
0020
,
0000
0030
0100
0010
,
0001
1000
0010
0200
,
0000
0300
0000
0010
,
1000
0001
0010
0200
,
0000
0300
0010
2002
,
0000
0000
0000
0000
,
3003
0000
0000
0000
,
0002
0000
0000
0000
,
0000
0000
0000
0000
,
1003
0000
0000
0001
0000
0000
0010
0000
,
0000
0000
0000
0000
,
0002
0000
0000
0003
,
2000
0000
0000
3000
,
0000
0010
0000
0100
,
0000
0100
0000
0100
;

//---------------dance-single - ----------------
#NOTES:
     dance-single:
     :
     Beginner:
     2:
     0.071157,0.113171,0.021975,0.000000,0.000000,68.000000,65.000000,3.000000,0.000000,0.000000,0.000000,0.071157,0.113171,0.021975,0.000000,0.000000,68.000000,65.000000,3.000000,0.000000,0.000000,0.000000:
0000
0000
0000
0000
,
0000
0000
0000
0000
,
0000
0000
0000
0000
,
0000
0000
0000
0000
,
0000
0000
0000
0000
,
0000
0000
0000
0000
,
0000
0000
0000
0000
,
0000
0000
0000
0000
,
1000
0000
1000
0000
,
1000
0000
0000
0000
,
0001
0000
0001
0000
,
0001
0000
0000
0000
,
0100
0000
0000
0000
,
0100
0000
0000
0000
,
0000
0000
0000
0000
,
0000
0000
0010
0000
,
0010
0000
0000
0000
,
0000
0000
1000
0000
,
0001
0000
0000
0000
,
0000
0000
0010
0000
,
0001
0000
0000
0000
,
0000
0000
0100
0100
,
0100
0000
0000
0000
,
0000
0000
0010
0000
,
1000
0000
0000
0000
,
0000
0000
0001
0000
,
1000
0000
0000
0000
,
0000
0000
0100
0000
,
1000
0000
0000
0000
,
0000
0000
0010
0010
,
0010
0000
0000
0000
,
0000
0000
0000
0000
,
1000
0000
0001
0000
,
0010
0000
0000
0000
,
0001
0000
1000
0000
,
0100
0000
0000
0000
,
1000
0000
0010
0000
,
0100
0000
0000
0000
,
0001
0000
0000
0000
,
1001
0000
0000
0000
,
0000
0000
0000
0000
,
0010
0000
0000
0000
,
0000
0000
0000
0000
,
0100
0000
0000
0000
,
0001
0000
0000
0000
,
0000
1000
0000
0000
,
0000
0000
0000
0000
,
0110
0000
0000
0000
,
0000
0000
0000
0000
,
0010
0000
0000
0000
,
0000
0000
0000
0000
,
0001
0000
0000
0000
,
1000
0000
0000
0000
,
0000
0010
0000
0000
,
0000
0000
0100
0000
,
0010
0000
0000
0000
,
0000
0000
1000
0000
,
0100
0000
0000
0000
,
0000
0000
0000
0000
,
1000
0000
0000
0000
,
0000
0000
0010
0010
,
0000
0000
0000
0000
,
0000
0000
0100
0000
,
0001
0000
0000
0000
,
0000
0000
0010
0000
,
0100
0000
0000
0000
,
0000
0000
0000
0000
,
0010
0000
0000
0000
,
0000
0000
0001
0001
,
0000
0000
0000
0000
,
0000
0000
0000
0000
,
0110
0000
0000
0000
,
0000
0000
0000
0000
,
0010
0000
0000
0000
,
0000
0000
0000
0000
,
1000
0000
0000
0000
,
0001
0000
0000
0000
,
0000
0100
0000
0000
;
