#VERSION:0.83;
#TITLE:BIGソムタム;
#SUBTITLE:;
#ARTIST:AJURIKA;
#TITLETRANSLIT:BIG som tam;
#SUBTITLETRANSLIT:;
#ARTISTTRANSLIT:;
#GENRE:DRUMSTEP;
#ORIGIN:;
#CREDIT:;
#BANNER:BIG som tam.png;
#BACKGROUND:BIG som tam-bg.png;
#PREVIEWVID:;
#JACKET:BIG som tam-jacket.png;
#CDIMAGE:;
#DISCIMAGE:;
#LYRICSPATH:;
#CDTITLE:CDTitle.png;
#MUSIC:BIG Som tam.ogg;
#OFFSET:-0.007000;
#SAMPLESTART:75.722023;
#SAMPLELENGTH:15.401070;
#SELECTABLE:YES;
#BPMS:0.000=187.000,
76.000=93.500,
108.000=187.000,
140.000=93.500,
156.000=187.000,
252.000=93.000,
256.000=187.000;
#STOPS:;
#DELAYS:;
#WARPS:;
#TIMESIGNATURES:0.000=4=4;
#TICKCOUNTS:0.000=4;
#COMBOS:0.000=1;
#SPEEDS:0.000=1.000=0.000=0;
#SCROLLS:0.000=1.000;
#FAKES:;
#LABELS:0.000=Song Start;
#BGCHANGES:;
#KEYSOUNDS:;
#ATTACKS:
;

//---------------dance-single - ----------------
#NOTEDATA:;
#CHARTNAME:;
#STEPSTYPE:dance-single;
#DESCRIPTION:;
#CHARTSTYLE:;
#DIFFICULTY:Hard;
#METER:16;
#RADARVALUES:0.683919,1.158330,0.401685,0.508255,0.413982,584.000000,535.000000,49.000000,62.000000,0.000000,0.000000,0.000000,0.000000,0.000000,0.683919,1.158330,0.401685,0.508255,0.413982,584.000000,535.000000,49.000000,62.000000,0.000000,0.000000,0.000000,0.000000,0.000000;
#CREDIT:Pandemonium X;
#NOTES:
// measure 0
0000
0000
0000
0000
,  // measure 1
1000
0100
0001
0100
1000
0100
0010
0001
,  // measure 2
0100
1000
0100
0001
0100
1000
1100
0000
,  // measure 3
0001
1000
0001
0100
0000
0001
1000
0100
,  // measure 4
0000
0000
1000
0000
0001
0000
0100
0000
0002
0000
0000
0000
0013
0100
0010
0100
,  // measure 5
0010
0000
0010
0000
0001
0000
1000
0000
0100
0000
0100
0000
0010
0100
0010
0100
,  // measure 6
0010
0001
1000
0100
0010
0022
0000
0033
,  // measure 7
0100
1000
0001
0100
0000
0100
0001
1000
,  // measure 8
0000
0000
1000
0000
0001
0000
0100
0000
0020
0000
0000
0000
1030
0001
1000
0001
,  // measure 9
0100
0100
0010
0010
1000
1000
1000
1000
,  // measure 10
0001
0001
0010
0010
0100
2200
0000
3300
,  // measure 11
0001
0010
0100
1000
0000
1000
0100
0010
,  // measure 12
0000
0000
0010
0000
0100
0000
1000
0000
0020
0000
0000
0000
0130
0001
0100
0001
,  // measure 13
0010
0000
0010
0000
1000
0000
0010
0000
0001
0000
0100
0000
0010
1000
0001
1000
,  // measure 14
0001
1000
0100
0010
0001
2020
0000
3030
,  // measure 15
0100
0001
0010
0100
0000
0100
0010
0001
,  // measure 16
0000
0000
0001
0000
0010
0000
0100
0000
0020
0000
0000
0000
0130
1000
0100
1000
,  // measure 17
0001
0100
1000
0100
0010
0001
0010
1000
,  // measure 18
0100
0010
0100
1000
0010
1000
1001
0000
,  // measure 19
1000
0000
1000
0000
1000
0000
1000
0000
2100
0000
0000
0000
3000
0000
0000
0000
0002
0000
0000
0000
1003
0100
0010
0001
1000
0000
0000
0000
1001
0000
0000
0000
,  // measure 20
0001
0000
0001
0000
0001
0000
0001
0000
0012
0000
0000
0000
0000
0000
0000
0000
1003
0100
0010
0001
1000
0100
0010
0001
0020
0000
0000
0000
0230
0000
0000
0000
,  // measure 21
1300
0000
1000
0000
1000
0000
1000
0000
2010
0000
0000
0000
3000
0000
0000
0000
0002
0000
0000
0000
1003
0100
0010
0001
0010
0000
0000
0000
1001
0000
0000
0000
,  // measure 22
0110
0000
0000
0000
1000
0010
0100
0001
0010
0000
0000
0000
0100
0010
0001
1000
0100
0000
0000
0000
0010
0001
0010
0100
2000
0000
0000
0000
3002
0000
0000
0000
,  // measure 23
0103
0000
0100
0000
0100
0000
0100
0000
0120
0000
0000
0000
0030
0000
0000
0000
2000
0000
0000
0000
3001
0010
0100
1000
0001
0000
0000
0000
1001
0000
0000
0000
,  // measure 24
0010
0000
0010
0000
0010
0000
0010
0000
0210
0000
0000
0000
0300
0000
0000
0000
0001
0010
0100
1000
0100
0010
0001
1000
0020
0000
0000
0000
2030
0000
0000
0000
,  // measure 25
3100
0000
0100
0000
0100
0000
0100
0000
0120
0000
0000
0000
0030
0000
0000
0000
0200
0000
0000
0000
1300
0100
0010
0001
1000
0000
0000
0000
1001
0000
0000
0000
,  // measure 26
0110
0000
0000
0000
1000
0010
0100
0001
0100
0000
0000
0000
0010
1000
0100
0010
0001
0000
0000
0000
0001
0010
0100
1000
0002
0000
0000
0000
2003
0000
0000
0000
,  // measure 27
3020
0000
0000
0200
,  // measure 28
0000
0000
0000
0330
,  // measure 29
0002
0000
0000
2000
,  // measure 30
0000
0000
0000
3003
,  // measure 31
2000
0000
0000
0200
,  // measure 32
0000
0000
0000
3300
,  // measure 33
0020
0000
0000
0002
,  // measure 34
0000
0000
0000
0033
,  // measure 35
1001
0000
0000
0000
1000
0000
0000
0000
0001
0000
0100
0000
0001
0000
0010
0000
0100
0000
0000
0000
0010
0000
0000
0000
0001
0000
0010
0000
0100
0010
0001
1000
,  // measure 36
0100
1100
0010
0101
,  // measure 37
0010
0000
0000
0000
0100
0000
0000
0000
0010
0000
0000
0000
0000
0000
0000
0000
1000
0000
0000
0000
0001
0000
0000
0000
0010
0100
1000
0001
0010
0100
0010
0001
,  // measure 38
1000
0110
1001
0110
,  // measure 39
2001
0001
0001
0001
,  // measure 40
0001
0001
0001
3001
,  // measure 41
1002
1000
1000
1000
,  // measure 42
1000
1000
1000
1003
,  // measure 43
0010
1000
0200
0000
0310
0001
0200
0000
,  // measure 44
0310
1000
0200
0000
0310
0001
0200
0000
,  // measure 45
0310
1000
0010
1000
0001
0100
0001
0100
0001
0010
0001
0010
0100
1000
0100
1000
,  // measure 46
0001
0000
1000
0020
0000
0130
0002
0000
,  // measure 47
0103
0010
0010
0100
0001
0001
1000
0100
,  // measure 48
0000
1000
0000
0010
0000
1010
0000
1001
,  // measure 49
0000
1000
0100
0100
1000
0010
0100
0010
,  // measure 50
0000
0100
0000
0001
0000
1001
0000
0110
,  // measure 51
0000
1000
0001
0001
0010
0100
0010
0100
,  // measure 52
0000
1000
0000
0010
0000
0100
0001
0001
,  // measure 53
0000
0100
1000
0100
0001
0100
0001
1000
,  // measure 54
0000
0000
1001
0000
0000
0000
0011
0000
0000
0000
0020
0030
0020
0030
0200
0300
,  // measure 55
0010
0100
0100
1000
0010
0010
0100
0001
,  // measure 56
0000
1000
0000
0100
0000
1100
0000
0011
,  // measure 57
0000
0010
0001
0001
0010
0100
1000
0010
,  // measure 58
0000
1000
0000
0001
0000
0011
0000
1001
,  // measure 59
0000
0001
1000
1000
0100
0010
0001
0010
,  // measure 60
0000
0001
0000
0010
0000
1100
0000
1010
,  // measure 61
1000
0100
0100
1000
0010
0010
1000
0001
,  // measure 62
0000
0011
0000
1010
0000
1000
0001
0110
,  // measure 63
0020
0000
0000
0000
0000
0000
0000
0000
1030
0100
0010
0001
1000
0100
0010
0001
0000
0000
1001
0000
0000
0000
0201
0000
0000
0000
0320
0000
0000
0000
0000
0000
,  // measure 64
0130
0010
0010
0100
0001
0001
0100
0010
,  // measure 65
0000
0100
0000
0001
0000
1100
0000
0101
,  // measure 66
0000
0001
0010
0010
0001
1000
0100
0100
,  // measure 67
0000
1000
0000
0100
0000
1100
0000
0101
,  // measure 68
0020
0000
1030
0200
0000
0310
0011
0001
,  // measure 69
0100
1000
0100
0010
1000
0100
0010
1001
,  // measure 70
0001
0100
0100
0001
1000
1000
0100
0020
,  // measure 71
0000
0000
0030
0100
1000
0001
1000
0010
,  // measure 72
0200
0000
0300
0000
0010
1000
0001
0020
,  // measure 73
0000
0030
0200
0300
1000
0100
1000
0002
,  // measure 74
0000
0000
0000
0000
0003
0000
0000
0000
1000
0100
0010
0001
1000
0100
0020
0000
,  // measure 75
0000
0000
0030
0000
0100
0000
2000
0000
0000
0000
3100
0010
0001
0010
0100
1000
,  // measure 76
0010
0100
0001
1000
0100
0010
0100
1000
,  // measure 77
0000
0001
0000
0100
0020
1030
0001
0220
,  // measure 78
0000
0000
0330
0000
;

//---------------dance-single - ----------------
#NOTEDATA:;
#CHARTNAME:;
#STEPSTYPE:dance-single;
#DESCRIPTION:;
#CHARTSTYLE:;
#DIFFICULTY:Easy;
#METER:9;
#RADARVALUES:0.401685,0.675692,0.147558,0.131163,0.036889,343.000000,325.000000,18.000000,16.000000,0.000000,0.000000,0.000000,0.000000,0.000000,0.401685,0.675692,0.147558,0.131163,0.036889,343.000000,325.000000,18.000000,16.000000,0.000000,0.000000,0.000000,0.000000,0.000000;
#CREDIT:Pandemonium X;
#NOTES:
0000
0000
0000
0000
,
0000
0000
0000
0000
,
0000
0000
0000
0000
,
1000
0000
0000
0001
0000
0000
0010
0000
,
0000
0001
0100
0000
,
0010
1000
0100
0001
,
0100
0000
1000
0000
0010
0200
0000
0000
,
0301
0000
0000
0010
0000
0000
0001
0000
,
0000
1000
0001
0000
,
0100
0001
0010
1000
,
0010
0000
0100
0000
1000
0020
0000
0000
,
1030
0000
0000
0001
0000
0000
0010
0000
,
0000
0100
0010
0000
,
0100
1000
0010
1000
,
0001
0000
0010
0000
0100
0020
0000
0000
,
0130
0000
0000
0010
0000
0000
0001
0000
,
0000
1000
0001
0000
,
1000
0100
0001
0100
,
1000
0010
0100
0001
,
1000
0000
0001
0000
0010
0001
0100
0010
,
1000
0000
0010
0000
0100
0010
1010
0101
,
0001
0000
0010
0000
0001
1000
0001
0100
,
0010
0000
1000
0001
1000
0000
0001
1000
0001
0000
1000
0001
1000
0000
0001
0000
,
0100
0010
1000
0000
0010
0100
0001
0010
,
0100
1000
0100
0000
1000
0100
0110
0011
,
0001
0100
0010
0000
0100
0010
1000
0001
,
0100
0000
0010
0100
0010
0000
0100
0010
0100
0000
0010
0100
0010
0000
1000
0000
,
0002
0000
0000
2000
,
0000
0000
0000
3003
,
2000
0000
0000
0002
,
0000
0000
0000
3003
,
0002
0000
0000
2000
,
0000
0000
0000
3003
,
2000
0000
0000
0002
,
0000
0000
0000
3003
,
1000
0001
0100
0001
,
0011
0000
0101
0000
1010
0000
0110
0010
,
0011
0010
0001
0100
,
0110
1001
0110
1001
,
0110
0010
1000
0010
,
0100
0001
0010
0100
,
0010
0001
1000
0100
,
0001
0100
1000
0010
,
0100
0010
0100
0000
0010
0100
0010
0000
,
1000
0001
1000
0000
0001
1000
0001
0000
,
1000
0100
0000
0100
0000
0010
0000
0010
,
0001
0000
1000
0010
0000
0001
0010
0000
,
1001
0000
1000
0000
0100
0010
0100
1000
,
0000
0001
0000
0100
0000
0001
0000
0010
,
0000
0100
1000
0000
0100
0010
0001
1000
,
0000
0001
0000
0100
0000
0001
0000
0100
,
0000
0010
1000
0000
0100
0010
0100
1000
,
0000
0100
0000
1000
0000
0010
0000
0100
,
0000
0001
0100
0000
0001
0010
0100
1000
,
0000
0001
0000
1000
0000
0001
0100
0010
,
1000
0001
0010
0000
0100
0010
0001
1000
,
0000
0001
0000
0010
0000
0100
0000
0010
,
0000
0100
1000
0000
0100
1000
0010
0100
,
0000
0010
0000
1000
0000
0001
0000
0010
,
0000
0100
0010
0000
0100
1000
0010
0100
,
0000
0010
0000
1000
0000
0001
0000
0010
,
0000
0100
1000
0000
0100
0010
0001
1000
,
0000
1001
0000
0110
0000
0001
0100
0010
,
1000
0000
0000
0000
0002
0000
0000
0003
0000
0010
0000
0001
0000
0200
0000
0300
,
0000
0010
1000
0000
0001
0010
0100
0010
,
0000
0100
0000
1000
0000
0010
0000
0100
,
0000
0001
0010
0000
0100
0010
0001
1000
,
0000
0001
0000
0010
0000
0001
0000
1000
,
0200
0000
0000
2300
0000
0000
3010
0000
,
0100
0010
1000
0000
0010
0100
0001
0010
,
0100
0000
1000
0000
0010
0000
0100
0010
,
0000
0000
0000
0000
0100
0000
0010
1000
,
0000
0000
0000
0000
0000
0000
0001
0010
,
0000
0000
0100
0000
1000
0000
0100
1000
,
0000
0000
0000
0000
0100
0010
0001
1000
,
0000
0000
0001
0100
0000
0001
1000
0001
,
0000
0010
0000
0100
0000
0000
0000
0000
,
0000
0011
0000
0100
1000
0010
0100
0002
,
0000
0000
0003
0000
;

//---------------dance-single - ----------------
#NOTEDATA:;
#CHARTNAME:;
#STEPSTYPE:dance-single;
#DESCRIPTION:;
#CHARTSTYLE:;
#DIFFICULTY:Medium;
#METER:12;
#RADARVALUES:0.522308,0.772220,0.196744,0.254128,0.131163,446.000000,422.000000,24.000000,31.000000,0.000000,0.000000,0.000000,0.000000,0.000000,0.522308,0.772220,0.196744,0.254128,0.131163,446.000000,422.000000,24.000000,31.000000,0.000000,0.000000,0.000000,0.000000,0.000000;
#CREDIT:Pandemonium X;
#NOTES:
0000
0000
0000
0000
,
0000
0000
0000
0000
,
0000
0000
0000
0000
,
1000
0001
0100
0001
0000
0001
0100
0001
,
0000
0001
0100
0001
0020
0000
0030
0000
,
0100
0010
0001
0100
0010
1000
0001
0010
,
0100
0010
0001
1000
0000
0202
0000
0303
,
0001
1000
0010
1000
0000
1000
0010
1000
,
0000
1000
0010
1000
0100
0000
0000
0000
,
1000
0001
1000
0001
0100
0010
0100
0010
,
1000
0001
0100
0010
1000
2002
0000
3003
,
0001
0010
0100
0010
0000
0010
0100
0010
,
0000
0010
0100
0010
0001
0000
0000
0000
,
1000
0010
0100
0010
1000
0010
0100
0010
,
1000
0001
0010
0100
0000
0022
0000
0033
,
0001
1000
0010
1000
0000
1000
0010
1000
,
0000
1000
0010
1000
0100
0000
0000
0000
,
0010
0001
0100
0010
1000
0001
0010
0100
,
1000
0100
0001
0100
1000
0010
0100
0000
,
0001
0100
0001
0100
0001
0000
0000
0000
0010
0000
0100
1000
0010
0000
1000
0000
,
0100
1000
0100
1000
0100
0000
0000
0000
2000
0000
0000
0000
3001
0000
0110
0000
,
0001
0010
0001
0010
0001
0000
0000
0000
1000
0000
0001
1000
0010
0000
0100
0000
,
0001
0000
1000
0001
0100
0000
0100
0001
1000
0000
1000
0100
0010
0000
1001
0000
,
0001
0100
0001
0100
0001
0000
0000
0000
0010
0000
0100
1000
0010
0000
0100
0000
,
0001
1000
0001
1000
0001
0000
0000
0000
1000
0100
0010
0001
0010
0000
1001
0000
,
1000
0001
1000
0001
1000
0000
0000
0000
0010
0000
0100
0010
1000
0000
0001
0000
,
1000
0000
0001
1000
0010
0000
0010
1000
0001
0000
1000
0100
0010
0000
0100
0000
,
2000
0000
0000
0020
,
0000
0000
0000
3030
,
0200
0000
0000
0002
,
0000
0000
0000
0303
,
2000
0000
0000
0020
,
0000
0000
0000
3030
,
0200
0000
0000
0002
,
0000
0000
0000
0303
,
0001
0000
1000
0000
0100
0000
1000
0000
0010
0000
0100
0000
0001
0000
0010
0100
,
1000
1100
0110
0011
,
1001
0000
0000
0000
0001
0000
0000
0000
1000
0000
0000
0000
0001
0010
0100
1000
,
1001
0101
1100
0011
,
1001
0001
1000
0010
,
1000
0001
0010
1000
,
0010
0001
0100
1000
,
0100
0010
1000
0001
,
0100
0010
0100
0000
0010
0100
0010
0000
,
0100
0010
0100
0000
0010
0100
0010
0000
,
0100
0010
1000
0001
0100
0010
1000
0001
,
1000
0000
0001
0200
0000
1300
0200
0000
,
0310
0010
0001
0010
0100
1000
0100
1000
,
0000
0100
0000
1000
0000
0010
0000
0100
,
0000
0010
1000
1000
0001
0010
0100
0010
,
0000
0100
0000
1000
0000
0010
0000
0100
,
0000
0001
0001
0010
0100
0010
0001
1000
,
0000
0001
0000
0100
0000
0001
0000
0010
,
0000
0100
0100
0010
0001
0010
0100
1000
,
0000
0100
0000
1000
0000
0002
0203
0302
,
1003
0100
0100
0010
0100
1000
0010
0100
,
0000
0010
0000
1000
0000
0001
0000
0010
,
0000
0100
0100
0010
0001
0100
0001
1000
,
0000
0001
0000
0010
0000
0100
0000
0010
,
0000
0100
0100
0010
0001
1000
0010
0100
,
0000
0010
0000
1000
0000
0001
0000
0010
,
0000
0100
0100
0010
0001
0001
1000
0001
,
0000
1001
0000
0110
0000
1000
0001
0000
,
0110
0000
0000
0000
1000
0100
0010
0001
0000
1001
0000
0110
0000
2020
0000
3030
,
0000
0001
0001
0010
0100
0010
0001
1000
,
0000
0001
0000
1000
0000
0010
0000
1000
,
0000
0010
0010
0100
0001
0010
0100
1000
,
0000
0100
0000
1000
0000
0010
0000
0100
,
0002
0000
0013
0200
0000
0310
0002
0000
,
1003
0010
0100
0001
0010
0100
1000
0001
,
1000
0100
0010
0000
0100
1000
0010
0200
,
0000
0000
0300
0000
0010
0100
0010
2000
,
0000
0000
3000
0000
0000
0000
0001
2000
,
0000
0000
3100
0000
0010
0100
1000
0020
,
0000
0000
0030
0000
0100
0010
1000
0001
,
0000
0000
0010
0100
0000
0010
0001
1000
,
0000
0101
0000
1010
0000
0000
0000
0000
,
0000
0110
0000
1000
0001
0100
1000
0200
,
0000
0000
0300
0000
;

//---------------dance-single - ----------------
#NOTEDATA:;
#CHARTNAME:;
#STEPSTYPE:dance-single;
#DESCRIPTION:;
#CHARTSTYLE:;
#DIFFICULTY:Beginner;
#METER:6;
#RADARVALUES:0.209626,0.418286,0.147558,0.098372,0.000000,179.000000,161.000000,18.000000,12.000000,0.000000,0.000000,0.000000,0.000000,0.000000,0.209626,0.418286,0.147558,0.098372,0.000000,179.000000,161.000000,18.000000,12.000000,0.000000,0.000000,0.000000,0.000000,0.000000;
#CREDIT:Pandemonium X;
#NOTES:
0000
0000
0000
0000
,
0000
0000
0000
0000
,
0000
0000
0000
0000
,
1000
0000
0000
0000
,
0001
0000
0000
0000
,
1000
0000
0001
0000
,
0100
0000
0001
0000
,
0010
0000
0000
0000
,
0100
0000
0000
0000
,
0010
0000
0001
0000
,
0100
0000
0010
0000
,
1000
0000
0000
0000
,
0001
0000
0000
0000
,
1000
0000
0100
0000
,
1000
0000
0010
0000
,
0100
0000
0000
0000
,
0010
0000
0000
0000
,
1000
0000
0001
0000
,
0100
0000
0010
0000
,
1001
0000
0010
0000
,
1001
0000
0100
0010
,
1001
0000
0100
0000
,
1001
0000
1000
0000
0001
0000
0100
0010
,
1001
0010
1000
0001
,
1001
0000
0001
0000
0010
0000
0100
0100
,
1000
0010
0100
0010
,
1001
0010
1001
0100
,
1002
0000
0000
0000
,
0000
0000
0000
0003
,
2000
0000
0000
0000
,
0000
0000
0000
3000
,
0002
0000
0000
0000
,
0000
0000
0000
0003
,
2000
0000
0000
0000
,
3000
0000
0000
0000
,
0001
0000
1000
0000
,
0010
0100
0010
1000
,
0100
0000
0000
0010
,
0110
0110
1001
1001
,
0020
0000
0000
0000
,
0000
0000
0000
0030
,
0200
0000
0000
0000
,
0000
0000
0000
0300
,
0001
0000
1000
0000
,
0001
0000
1000
0000
,
0001
1000
0001
1000
,
0220
0000
0000
0330
,
1001
0000
1000
0000
,
0001
1000
0001
0000
,
0100
0000
0001
0000
,
0010
0100
0010
0000
,
0100
0000
1000
0000
,
0001
0100
0001
0000
,
0100
0000
0001
0000
,
1000
0000
0002
0000
,
1003
0000
0010
0000
,
1000
0010
0100
0000
,
0010
0000
1000
0000
,
0001
0010
0100
0000
,
0010
0000
0001
0000
,
1000
0001
0100
0000
,
0001
0000
1000
0000
,
0010
0000
1000
0000
,
1001
0020
0030
0000
,
0100
0000
0010
0000
,
1000
0000
0001
0000
,
0010
0000
0001
0000
,
1000
0000
0001
0000
,
1002
0000
0000
1003
0000
0000
0001
0000
,
0000
1000
0000
0000
0010
0000
1000
0000
,
0100
1000
0010
0000
,
0100
0001
0010
0000
,
0100
1000
0001
0000
,
0100
0001
0010
0100
,
1000
0000
0100
1000
,
0010
0100
0001
0010
,
0100
0010
0001
0000
,
0000
1000
0000
1001
0000
0001
0000
0020
,
0000
0000
0030
0000
;
