#TITLE:ARACHNE (DJ Noriken Remix);
#SUBTITLE:;
#ARTIST:DJ Noriken;
#TITLETRANSLIT:;
#SUBTITLETRANSLIT:;
#ARTISTTRANSLIT:;
#GENRE:;
#CREDIT:;
#BANNER:ARACHNE (DJ Noriken Remix).png;
#BACKGROUND:ARACHNE (DJ Noriken Remix)-bg.png;
#LYRICSPATH:;
#CDTITLE:;
#MUSIC:ARACHNE (DJ Noriken Remix).ogg;
#OFFSET:0.120000;
#SAMPLESTART:22.930849;
#SAMPLELENGTH:16.271185;
#SELECTABLE:YES;
#BPMS:0.000000=177.000000
,32.000000=44.250000
,33.000000=177.000000
,61.000000=88.500000
,63.000000=177.000000
,123.000000=88.500000
,125.000000=177.000000
,157.000000=88.500000
,165.000000=177.000000
,177.000000=88.500000
,179.000000=177.000000
,207.000000=44.250000
,208.000000=177.000000
,236.000000=88.500000
,238.000000=44.250000
,238.750000=354.000000
,239.250000=177.000000
,296.000000=88.500000
,298.000000=177.000000
;
#STOPS:
;
#BGCHANGES:;
#KEYSOUNDS:;
#ATTACKS:;

//---------------dance-single - ----------------
#NOTES:
     dance-single:
     :
     Hard:
     16:
     0.728994,1.070938,0.588803,0.324268,0.580269,598.000000,529.000000,69.000000,38.000000,0.000000,0.000000,0.728994,1.070938,0.588803,0.324268,0.580269,598.000000,529.000000,69.000000,38.000000,0.000000,0.000000:
// measure 0
0000
0000
0000
0000
,  // measure 1
0000
0000
0000
0000
,  // measure 2
0000
0000
0000
0000
,  // measure 3
0000
0000
0000
0000
,  // measure 4
0000
0000
0000
0000
,  // measure 5
1010
0000
0000
0010
0000
0000
0100
0000
0001
0000
1000
0000
0001
0000
1000
0000
,  // measure 6
0001
0000
0000
0001
0000
0000
1000
0000
0100
0000
0000
0000
0000
0000
0000
0000
,  // measure 7
1000
0000
0000
1000
0000
0000
0100
0000
0010
0000
0001
0000
0010
0000
0001
0000
,  // measure 8
4001
0000
0000
0000
3200
0000
0000
0310
0000
0000
0100
0000
1000
0000
0010
0000
,  // measure 9
0100
0000
0001
0000
0020
0000
0000
0130
0000
0000
0010
0000
0001
0000
0100
0000
,  // measure 10
0001
0000
1000
0000
0200
0000
0000
0310
0000
0000
0001
0000
0010
0000
0001
0000
,  // measure 11
1000
0000
0010
0000
0200
0000
0000
0301
0000
0000
0100
0000
0010
0000
1000
0000
,  // measure 12
0001
0000
0010
0000
0210
0000
0000
1300
0000
0000
0100
0000
2100
0000
0000
3010
,  // measure 13
0000
0000
0100
0000
0120
0000
0000
1030
0000
0000
0001
0000
0021
0000
0000
0130
,  // measure 14
0000
0000
0010
0000
0001
1000
0001
0000
0100
0010
0100
0000
0001
0100
0001
0000
,  // measure 15
1000
0000
0010
0000
1000
0000
0000
0000
0001
0100
0010
0000
0100
0000
0010
1000
0100
0000
0010
0000
1001
0000
0000
0000
1010
0000
0000
0000
0000
0000
1000
0000
,  // measure 16
0000
0000
1000
0000
0010
0000
0010
0000
0010
0000
0010
0000
0100
0000
0000
0100
,  // measure 17
0000
0000
0010
0000
0100
0000
0100
0000
0100
0000
0100
0000
0001
0000
0000
0001
,  // measure 18
0000
0000
0010
0000
0100
0000
0100
0000
0100
0000
0100
0000
1000
0000
0000
1000
,  // measure 19
0000
0000
0001
0000
1000
0000
0010
0000
0001
0000
0010
0000
1000
0000
0000
1000
,  // measure 20
0000
0000
0001
0000
0010
0000
0010
0000
0010
0000
0010
0000
0100
0000
0000
0100
,  // measure 21
0000
0000
0010
0000
0001
0000
0001
0000
0010
0000
0010
0000
0200
0000
0000
1300
,  // measure 22
0000
0000
1000
0000
0020
0000
0000
0130
0000
0000
0100
0000
0002
0000
0000
0013
,  // measure 23
0000
0000
0010
0000
0001
0000
0010
0000
2002
0000
3003
0000
0210
0000
0000
0001
,  // measure 24
0000
0000
0310
0000
0000
0000
1000
0000
0100
0000
0010
0000
0021
0000
0000
0100
,  // measure 25
0000
0000
0130
0000
0000
0000
0010
0000
0001
0000
0001
0000
2001
0000
0000
3001
,  // measure 26
0000
0000
0001
0000
0201
0000
0000
0301
0000
0000
0100
0000
0120
0000
0000
0130
,  // measure 27
0000
0000
0010
0000
0000
0000
0100
0000
0010
0000
1000
0000
1002
0000
0000
0013
,  // measure 28
0000
0000
0100
0000
2001
0000
0000
3010
0000
0000
0100
0000
2001
0000
0000
3010
,  // measure 29
0000
0000
0100
0000
1002
0000
0000
0013
0000
0000
0100
0000
1000
0000
0100
1000
,  // measure 30
0010
0000
0000
0000
0100
0000
0010
0000
1000
0000
0001
0000
0010
0000
0100
0000
0010
0000
0001
0000
1000
0000
0010
0000
1000
0001
0010
0000
0100
0000
0010
0001
,  // measure 31
1000
0010
1001
0000
0001
0000
0100
0000
1000
0000
0100
0000
0010
0000
1000
0000
,  // measure 32
0010
0001
0010
0100
1000
0100
0010
1000
,  // measure 33
0001
0000
1000
0100
0001
0100
0010
0001
,  // measure 34
0010
1000
0010
0100
0010
0001
0010
0100
,  // measure 35
1000
0000
0001
0100
1000
0100
0010
1000
,  // measure 36
0010
0001
0010
1000
0010
0100
0010
1000
,  // measure 37
0001
0000
0001
0010
1000
0010
0001
0010
,  // measure 38
0100
0010
0011
0000
1010
0000
1001
0000
,  // measure 39
0100
0000
0000
0000
0201
0000
0000
0000
0010
0010
0010
0010
0310
0000
0000
0000
,  // measure 40
1001
1001
1001
0000
1020
0000
0000
0000
0100
0100
0100
0100
0130
0000
0000
0000
,  // measure 41
0010
1000
0001
0000
1001
0000
0000
0000
1000
0000
0000
0000
0000
0000
0100
0000
0000
0000
0000
0000
1000
0000
0000
0000
0001
0000
0000
0000
0000
0000
0100
0000
,  // measure 42
0000
0000
0001
0000
0010
0000
0000
0100
0000
0000
0010
0000
0001
0000
0000
1000
,  // measure 43
0000
0000
0001
0000
0100
0010
0100
0000
0001
1000
0001
0000
1000
0100
1000
0000
,  // measure 44
0001
0100
0001
0000
0020
0000
0000
0000
0000
0000
0000
0000
0130
0000
0000
0000
,  // measure 45
0000
1000
0000
0010
,  // measure 46
0000
0000
0000
0000
0100
0000
0001
1000
0100
0000
0010
0000
0100
0000
0000
0000
,  // measure 47
0000
0000
0000
0000
1000
0000
0000
0000
0000
0000
0000
0000
0001
0000
0000
0010
,  // measure 48
0000
0000
0001
0000
1000
0000
0010
0100
0010
0000
1000
0000
1001
0000
0000
0000
,  // measure 49
0000
0000
0000
0000
0010
0000
0000
0000
0000
0000
0000
0000
1000
0000
0001
0010
,  // measure 50
0100
0000
0010
0000
0001
0000
1000
0100
0010
0000
0100
0000
1000
0000
0000
0000
,  // measure 51
0000
0001
0000
0140
,  // measure 52
1030
1100
0101
1001
,  // measure 53
0001
0011
1010
1001
,  // measure 54
0021
0130
1020
0130
,  // measure 55
1002
0000
0013
0000
0100
0010
0001
1000
,  // measure 56
1020
0000
0000
1030
0000
0000
0010
0000
0210
0000
0000
0301
0000
0000
1000
0000
,  // measure 57
2100
0000
0000
3010
0000
0000
0100
0000
1002
0000
0000
0013
0000
0000
0100
0000
,  // measure 58
1000
0100
1000
0000
0001
0100
0001
0000
1000
0010
1000
0010
0100
0001
0100
0001
,  // measure 59
1000
0000
0001
0000
0010
0000
0000
0000
0100
0000
0000
0000
1000
0000
0100
0000
0010
0000
0000
0000
0001
0000
0000
0000
1001
0000
0000
0000
0000
0000
0000
0000
1000
0000
0000
0001
0000
0000
0010
0000
0000
0000
0100
0000
1001
0000
0000
0000
0000
0000
0000
0000
0000
0000
0000
0000
0000
0000
0000
0000
0000
0000
0000
0000
,  // measure 60
1001
0000
0000
0001
0000
0000
0010
0000
0000
0000
0100
1000
0100
1000
0100
0000
,  // measure 61
1000
0000
0000
0001
0000
0000
0100
0000
0000
0000
0010
0100
0010
0100
0010
0000
,  // measure 62
1000
0000
0000
0001
0000
0000
0010
0000
0100
0000
0100
0000
0010
0000
0100
0000
,  // measure 63
1000
0000
0000
0001
0000
0000
0010
0000
0000
0000
0100
0010
0100
0010
0100
0000
,  // measure 64
1000
0000
0000
0001
0000
0000
0010
0000
0000
0000
0001
0010
0001
0010
0001
0010
,  // measure 65
0100
0000
0000
1000
0000
0000
0010
0000
0100
0000
0000
0001
0000
0000
1000
0000
,  // measure 66
0100
0000
0000
0010
0000
0000
0100
0000
1000
0000
0010
0000
2002
0000
3003
0000
,  // measure 67
0110
0000
0000
1010
0000
0000
0101
0000
0000
0000
0001
1000
0001
1000
0001
0000
,  // measure 68
1100
0000
0000
0110
0000
0000
0011
0000
0000
0000
1000
0010
1000
0010
1000
0000
,  // measure 69
0101
0000
0000
0011
0000
0000
0101
0000
0011
0000
0000
1001
0000
0000
1100
0000
,  // measure 70
0110
0000
0000
1001
0000
0000
0110
0000
0000
0110
0000
0000
1001
0000
0000
0000
,  // measure 71
0201
0000
0000
0310
0000
0000
1000
0000
1200
0000
0000
0310
0000
0000
0001
0000
,  // measure 72
0201
0000
0000
0310
0000
0000
1000
0000
1002
0000
0000
0013
0000
0000
0100
0000
,  // measure 73
1000
0100
1000
0000
0001
0100
0001
0000
0100
0010
1000
0001
0010
0100
1000
0100
,  // measure 74
0010
0001
0100
0000
0010
0000
0100
0010
1000
0000
0100
0000
1001
0000
0000
0000
0001
0000
0000
0000
0000
0000
1000
0000
0000
0000
0000
0000
0001
0000
0000
0000
,  // measure 75
0100
0000
0100
0000
0100
0000
0100
0000
0001
0000
0000
1000
0000
0000
0001
0000
,  // measure 76
0100
0000
0100
0000
0100
0000
0100
0000
0001
0000
0000
1000
0000
0000
0001
0000
,  // measure 77
0010
0000
0010
0000
0010
0000
0010
0000
0001
0000
0000
1000
0000
0000
0001
0000
,  // measure 78
0010
0000
0010
0000
0010
0100
0010
0100
0000
0000
0000
0000
0000
0000
0000
0000
;

//---------------dance-single - ----------------
#NOTES:
     dance-single:
     :
     Medium:
     13:
     0.583926,0.736857,0.571736,0.204801,0.247468,479.000000,412.000000,67.000000,24.000000,0.000000,0.000000,0.583926,0.736857,0.571736,0.204801,0.247468,479.000000,412.000000,67.000000,24.000000,0.000000,0.000000:
0000
0000
0000
0000
,
0000
0000
0000
0000
,
0000
0000
0000
0000
,
0000
0000
0000
0000
,
0000
0000
0000
0000
,
2001
3010
0100
0100
,
0021
0130
1000
1000
,
1002
0013
0100
0100
,
2002
0000
0000
0000
3003
0000
0210
0000
0000
0000
0000
0000
0301
0000
0000
0000
0000
0000
0010
0000
0000
0100
0000
0000
,
1000
0000
1200
0000
0310
0000
0100
0010
,
0001
1000
1020
0000
0130
0000
0010
1000
,
0001
0000
0021
0000
0130
1000
0010
0100
,
0010
0000
1000
0000
0001
0000
0000
0001
0000
0000
0001
0000
1000
0000
0000
1000
,
0000
0000
1000
0000
0010
0000
0000
0010
0000
0000
0010
0000
0100
0000
0000
0100
,
0000
0100
0010
1000
0100
1000
0010
0100
,
0001
0000
1000
0000
1001
0000
0110
0000
1010
0000
0101
0000
0001
0000
0000
0010
,
0000
0000
0100
0000
1000
0000
0001
0000
1000
0000
0001
0000
0100
0000
0000
0010
,
0000
0000
1000
0000
0010
0000
1000
0000
0010
0000
1000
0000
0001
0000
0000
1000
,
0000
0000
0100
0000
0010
0000
0001
0000
0010
0000
0001
0000
0010
0000
0000
0100
,
0000
0000
0010
0000
0100
0000
1000
0000
0001
0000
1000
0000
0010
0000
0000
1000
,
0000
0000
0010
0000
0100
0000
0010
0000
0100
0000
0010
0000
0100
0000
0000
0001
,
0000
0000
0010
0000
0001
0000
1000
0000
0010
0000
1000
0000
0001
0000
0000
1000
,
0000
0000
0010
0000
1000
0000
0000
0001
0000
0000
0010
0000
0100
0000
0000
0010
,
0000
0000
0001
0000
0100
0000
0010
0000
0200
0000
0000
0000
0301
0000
0000
0001
,
0000
0000
0010
0000
0000
0000
0100
0000
1000
0000
0001
0000
0100
0000
0000
0100
,
0000
0000
0010
0000
0000
0000
0100
0000
0010
0000
1000
0000
0001
0000
0000
0001
,
0000
0000
0001
0000
1000
0000
0000
1000
0000
0000
1000
0000
0001
0000
0000
0001
,
0000
0000
0001
0000
0000
0000
1000
0000
0100
0000
0010
0000
0200
0000
0000
0310
,
0000
0000
0001
0000
0200
0000
0000
0310
0000
0000
0100
0000
0002
0000
0000
1003
,
0000
0000
0001
0000
0020
0000
0000
0031
0000
0000
0010
0000
0100
0000
1000
0000
,
0010
0100
0001
0010
0100
1000
1100
0101
,
1010
1001
1000
0100
0000
1000
0010
0000
,
1000
0001
0000
1000
0100
0000
1001
0000
,
0110
0000
0001
0100
0000
0001
1000
0000
,
0001
0010
0000
0001
1000
0000
1001
0000
,
0110
0000
0001
0010
0000
0010
1000
0000
,
1000
0010
0000
0010
0001
0000
1001
0000
,
0110
0000
1000
0100
0000
0100
0001
0000
,
0001
0100
0000
0100
1000
0000
1100
0000
,
0011
0000
0000
0000
1001
0000
0000
0000
0001
0100
0001
0100
0001
0000
0000
0000
,
0100
0010
1000
0000
1100
0000
0000
0000
0100
0010
0100
0010
0100
0000
0000
0000
,
0010
0001
1001
0000
0010
0000
0000
1000
0000
0000
0001
0000
0010
0000
0000
0001
,
0000
0000
1000
0000
0100
0000
0000
0010
0000
0000
0100
0000
1000
0000
0000
0001
,
0000
0100
0010
1000
0010
0100
0001
0010
,
0100
1000
0020
0000
0000
0000
0130
0000
,
0000
0000
0000
0000
,
0000
0000
0000
0100
0001
1000
0100
0000
,
0000
0000
0000
0000
0000
0000
0000
0000
0000
0000
0000
0000
0010
0000
0000
0010
,
0000
0010
0100
0100
1000
1000
1001
0000
,
0000
0000
0000
0000
0000
0000
0001
0100
,
1000
0100
0001
0100
1000
0100
0001
0000
,
0000
0000
0000
0000
0000
0000
0000
0000
0000
0000
0000
0000
0000
0000
0000
0000
0000
0000
2002
0000
0000
0000
0000
3003
,
0110
1001
0110
1001
,
1010
0101
1010
0101
,
1100
0011
1100
0011
,
1001
0101
1001
1100
,
1001
0000
0000
0100
0000
0000
0001
0000
0010
0000
0000
0100
0000
0000
0010
0000
,
0001
0000
0000
1000
0000
0000
0100
0000
0010
0000
0000
0100
0000
0000
1000
0000
,
0001
0100
0010
1000
0100
0010
0100
1000
,
1100
0000
1010
0000
0011
0000
1100
0000
1001
0000
0000
0110
0000
0000
0000
0000
,
1000
0000
0000
1000
0000
0000
1000
0000
0000
0000
0001
0000
0100
0000
0001
0000
,
0100
0000
0000
0100
0000
0000
0010
0000
0000
0000
1000
0000
0001
0000
1000
0000
,
0100
0000
0000
0100
0000
0000
0100
0000
0010
0000
0100
0000
1000
0000
0001
0000
,
1000
0000
0000
1000
0000
0000
1000
0000
0000
0000
0001
0000
0010
0000
0001
0000
,
0100
0000
0000
0100
0000
0000
0100
0000
0000
0000
0010
0000
1000
0000
0100
0000
,
0010
0000
0000
0010
0000
0000
0010
0000
0100
0000
0000
0100
0000
0000
0100
0000
,
1000
0000
0000
1000
0000
0000
1000
0000
0001
0000
0010
0000
2002
0000
3000
0000
,
1003
0000
0000
0010
0000
0000
0100
0000
0000
0000
0010
0000
1000
0000
0001
0000
,
0010
0000
0000
0100
0000
0000
0010
0000
0000
0000
0010
0000
0001
0000
0100
0000
,
0010
0000
0000
0010
0000
0000
1000
0000
0001
0000
0000
0001
0000
0000
0010
0000
,
0110
0000
0000
0110
0000
0000
0110
0000
0000
0110
0000
0000
2002
0000
3003
0000
,
0110
0000
0000
0100
0000
0000
0001
0000
0011
0000
0000
0010
0000
0000
0100
0000
,
1100
0000
0000
0100
0000
0000
1000
0000
1001
0000
0000
0001
0000
0000
0100
0000
,
0010
1000
0010
0100
0001
0010
0100
1000
,
1001
0101
0011
1100
1002
0000
0103
0000
,
0001
0010
0100
1000
,
0100
1000
0020
1030
,
0010
0100
0001
1000
,
0001
0200
0300
0000
;

//---------------dance-single - ----------------
#NOTES:
     dance-single:
     :
     Easy:
     8:
     0.358402,0.535896,0.435202,0.426668,0.004267,294.000000,243.000000,51.000000,50.000000,0.000000,0.000000,0.358402,0.535896,0.435202,0.426668,0.004267,294.000000,243.000000,51.000000,50.000000,0.000000,0.000000:
0000
0000
0000
0000
,
0000
0000
0000
0000
,
0000
0000
0000
0000
,
0000
0000
0000
0000
,
0000
0000
0000
0000
,
2000
3100
1000
1000
,
0001
0100
0001
0000
,
0020
0031
0010
0100
,
1001
0120
1030
0001
,
0010
0200
1300
0100
,
1000
0020
1030
0010
,
0100
0001
0010
1000
,
0010
0002
0013
0200
,
1300
2000
3010
0200
,
0301
1000
0001
0100
,
0010
1001
0000
1000
,
0001
0010
0010
0001
,
0100
0001
0001
0010
,
0001
1000
1000
0001
,
1000
0100
0010
1001
,
1000
0010
0010
0100
,
0001
0010
0010
0200
,
1300
2000
3010
0020
,
0130
0200
0302
1003
,
0001
0010
0010
0001
,
1000
0100
0100
1000
,
0010
1000
0001
1000
,
0100
1000
0001
1001
,
0000
1010
0000
0101
,
0000
0011
0000
1001
,
0110
1001
0110
1001
,
0000
2000
0000
0000
,
0000
3002
0000
0023
,
0000
0032
0000
0000
,
0000
0203
0000
0302
,
0000
2003
0000
0000
,
0000
3020
0000
2030
,
0000
3200
0000
0000
,
0000
1000
1000
1000
,
1300
1001
0100
0110
,
0010
1001
1000
0011
,
0001
1000
0001
0000
1020
0000
0000
0000
0130
0000
0000
0000
0021
0000
0000
0000
,
0130
1002
0013
2001
,
3010
0002
0203
0320
,
2030
3100
0000
0101
,
0000
0000
0000
0000
,
0000
0000
1000
0001
0010
0100
0000
0000
,
0000
0000
0000
0020
,
0031
0000
1000
0100
1000
0100
0010
0000
,
0000
0000
0000
0000
0000
0000
0100
1000
,
0010
0000
0100
0001
0010
0000
0100
0000
,
0000
0000
0000
1001
,
0110
0010
1000
0001
,
0011
0001
1000
0010
,
0101
0001
0010
1000
,
0011
0001
1000
0001
,
0101
0001
1001
1000
,
1100
0100
0110
0010
,
0011
1100
0011
1100
,
1001
0000
0100
0000
,
1001
1000
0001
0010
,
0002
0103
0001
1000
,
0200
0310
0100
0100
,
0210
0310
0001
0100
,
0020
1030
0001
1000
,
0002
0103
0002
0103
,
1001
0110
1001
0110
,
2000
3010
1000
0100
,
0020
0130
1000
0010
,
0200
0301
0200
0310
,
0200
0301
0200
0310
,
1001
0000
1010
0000
,
0101
0000
0011
0000
,
1001
0110
1001
0110
,
1001
0000
2000
0000
,
0000
3000
0002
0000
,
0000
0003
0200
0000
,
0000
0300
0020
0000
,
0000
0230
0300
0000
;

//---------------dance-single - ----------------
#NOTES:
     dance-single:
     :
     Beginner:
     6:
     0.170667,0.333868,0.153601,0.000000,0.000000,140.000000,122.000000,18.000000,0.000000,0.000000,0.000000,0.170667,0.333868,0.153601,0.000000,0.000000,140.000000,122.000000,18.000000,0.000000,0.000000,0.000000:
0000
0000
0000
0000
,
0000
0000
0000
0000
,
0000
0000
0000
0000
,
0000
0000
0000
0000
,
0000
0000
0000
0000
,
0010
0000
0000
0000
,
0100
0000
0000
0000
,
0010
0000
0000
0000
,
1000
0001
0000
0000
,
0000
1000
0000
0000
,
0000
0010
0000
0000
,
0000
1000
0000
0000
,
0000
0001
0000
1000
,
0000
0010
0000
0100
,
0000
0010
0100
0001
,
1000
1001
0000
1000
,
0000
0001
0000
1000
,
0000
0001
0000
1000
,
0000
0001
0000
1000
,
0000
0010
0000
0100
,
0000
0010
0000
1000
,
0000
0010
0000
0100
,
0000
0010
0000
0100
,
0100
0100
0000
1001
,
0000
0000
0000
0001
,
0000
0000
0000
0010
,
0000
0001
0000
0100
,
0000
0000
0000
0110
,
0000
0000
0000
1001
,
0000
0000
0000
1000
,
0000
0001
0000
0110
,
0000
1000
0000
0000
,
0000
0010
0000
1000
,
0000
0001
0000
0000
,
0000
0010
0000
0001
,
0000
0100
0000
0000
,
0000
0010
0000
1000
,
0000
0100
0000
0000
,
0000
0010
0010
0010
,
0010
0110
0100
1000
,
0001
0100
0001
1000
,
0010
1000
0000
0001
,
0000
0010
0000
0001
,
0000
1000
0001
0100
,
0010
1001
0000
0110
,
0000
0000
0000
0000
,
0000
0000
0000
1001
,
0000
0000
0000
0000
,
0000
0000
0000
0110
,
0000
0000
0000
0000
,
0000
0000
0000
1001
,
0000
0000
0000
0110
,
1000
0000
0000
0000
,
0001
0000
0000
0000
,
0010
0000
0000
0000
,
0001
0000
0000
0000
,
1000
0000
0001
0000
,
0100
0000
0010
0000
,
1000
0010
0100
0001
,
1001
0000
0000
0000
,
1001
0000
0000
0000
,
0010
0000
0000
0000
,
1000
0000
0001
0000
,
0010
0000
0000
0000
,
0100
0000
0000
0000
,
0010
0000
0001
0000
,
1000
1000
0001
0001
,
1001
0000
0000
0000
,
0010
0000
0000
0000
,
0110
0000
1000
0000
,
1001
0000
0000
0000
,
0001
0000
1000
0000
,
0010
0000
0100
0000
,
0001
1000
0001
1000
,
1001
0000
0010
0000
,
0000
0000
0000
0000
,
0000
0000
0100
0000
,
0000
0000
0000
0000
,
0000
0001
0000
0000
;
