#VERSION:0.83;
#TITLE:AM-3P;
#SUBTITLE:;
#ARTIST:kTz;
#TITLETRANSLIT:;
#SUBTITLETRANSLIT:;
#ARTISTTRANSLIT:;
#GENRE:;
#ORIGIN:;
#CREDIT:;
#BANNER:AM-3P.png;
#BACKGROUND:AM-3P-bg.png;
#PREVIEWVID:;
#JACKET:AM-3P-jacket.png;
#CDIMAGE:;
#DISCIMAGE:;
#LYRICSPATH:;
#CDTITLE:;
#MUSIC:AM-3P.ogg;
#OFFSET:0.000000;
#SAMPLESTART:46.117001;
#SAMPLELENGTH:15.000000;
#SELECTABLE:YES;
#DISPLAYBPM:130.000000;
#BPMS:0.000=130.152,
20.000=130.109;
#STOPS:;
#DELAYS:;
#WARPS:;
#TIMESIGNATURES:0.000=4=4;
#TICKCOUNTS:0.000=4;
#COMBOS:0.000=1;
#SPEEDS:0.000=1.000=0.000=0;
#SCROLLS:0.000=1.000;
#FAKES:;
#LABELS:0.000=Song Start;
#BGCHANGES:;
#KEYSOUNDS:;
#ATTACKS:
;

//---------------dance-single - ----------------
#NOTEDATA:;
#CHARTNAME:;
#STEPSTYPE:dance-single;
#DESCRIPTION:;
#CHARTSTYLE:;
#DIFFICULTY:Hard;
#METER:14;
#RADARVALUES:0.563961,0.713905,0.318175,0.589213,0.518507,335.000000,308.000000,27.000000,50.000000,0.000000,0.000000,0.000000,0.000000,0.000000,0.563961,0.713905,0.318175,0.589213,0.518507,335.000000,308.000000,27.000000,50.000000,0.000000,0.000000,0.000000,0.000000,0.000000;
#CREDIT:Pandemonium X;
#DISPLAYBPM:130.000000;
#NOTES:
// measure 0
0000
0000
0000
0000
,  // measure 1
0000
0000
0000
0000
,  // measure 2
0000
0000
0000
0000
,  // measure 3
0000
0000
0000
0000
,  // measure 4
0000
0000
0000
0000
,  // measure 5
0020
0000
0000
0000
0130
0001
1000
0100
0020
0000
0000
0000
0130
1000
0001
1000
,  // measure 6
1100
1100
2002
3003
,  // measure 7
0200
0000
0000
0000
0310
1000
0001
0010
0200
0000
0000
0000
0310
0001
1000
0001
,  // measure 8
0011
0011
2002
3003
,  // measure 9
1000
0000
0010
0000
0101
0000
0000
0000
1000
0100
1000
0010
1000
0001
0000
0000
,  // measure 10
1000
0200
0302
0203
0320
0032
2003
3002
,  // measure 11
1003
0000
0010
0000
1010
0000
0000
0000
0001
0100
0001
0010
0100
0010
0000
0000
,  // measure 12
1200
0000
0000
0000
0310
0100
0000
0010
0001
1000
0000
0001
0000
0001
0000
0001
,  // measure 13
1000
0000
0100
0000
0011
0000
0000
0000
0010
0100
1000
0010
0100
0010
0000
0000
,  // measure 14
0000
0200
0320
2030
3002
0023
0230
0320
,  // measure 15
0031
0000
0100
0000
0110
0000
0000
0000
0100
0001
0010
0100
0010
0001
0000
0000
,  // measure 16
1100
0000
0001
0100
0000
1000
0100
0000
0001
0100
0000
1000
0100
0000
0100
0000
,  // measure 17
0010
0000
0000
0001
0000
0000
0100
0000
0000
0010
1000
0000
0001
0000
0010
0000
,  // measure 18
0200
0000
1000
0000
0310
0000
0100
1000
,  // measure 19
0001
0000
0000
1000
0000
0000
0010
0000
0000
0100
0010
0000
1000
0000
0001
0000
,  // measure 20
2000
0000
0000
0000
0010
0000
0000
0000
3001
0100
0000
0010
0200
0000
0000
0000
,  // measure 21
0310
0000
0000
1000
0000
0000
0100
0000
0000
0010
0100
0000
0010
0000
0001
0000
,  // measure 22
2000
0000
0010
0000
3001
0000
0100
0001
,  // measure 23
0010
0000
0000
0001
0000
0000
0100
0000
0000
0100
0010
0000
1000
0000
0001
0000
,  // measure 24
0010
0100
1000
0000
1000
0100
0010
0000
0100
0010
0001
0000
0001
0010
0100
0000
,  // measure 25
2100
0100
0010
3002
,  // measure 26
0103
1000
0100
0001
0010
1000
0010
0000
,  // measure 27
0100
0000
0010
0000
0010
0000
0100
0010
0000
0001
0000
1000
0010
0000
0100
0000
,  // measure 28
1002
0000
0103
1020
0000
0130
0021
0000
,  // measure 29
0230
1000
0010
2300
,  // measure 30
3010
0001
0010
1000
0001
0010
0100
0000
,  // measure 31
0010
0000
0001
0000
0001
0000
1000
0001
0000
0010
0000
0001
0100
0000
0010
0000
,  // measure 32
2001
0000
3100
0021
0000
0130
1002
0000
,  // measure 33
0103
0010
1000
0001
0010
0000
0000
0100
0010
0001
1000
0000
0000
1000
0001
1000
,  // measure 34
0000
1000
0100
1000
0010
1000
0100
0000
0000
0000
0100
0010
0000
0100
0000
0000
,  // measure 35
0000
0010
0001
0100
0001
0000
0000
0001
1000
0100
0010
0000
0000
0100
1000
0001
,  // measure 36
0000
0001
0010
0001
0100
0001
1000
0001
0010
0100
0010
0100
0010
0100
0010
0100
,  // measure 37
1000
0000
0000
0000
0100
0000
1000
0000
0020
0000
0000
0230
0000
0000
0000
0000
,  // measure 38
0301
0000
0000
0000
1000
0010
1000
0001
0010
0100
1000
0000
0002
0000
0000
0000
,  // measure 39
2003
0000
0000
3100
0020
0000
0000
0031
0200
0000
0000
0310
2000
0000
0000
0000
,  // measure 40
3100
0000
0000
0000
0010
0100
0000
0100
0010
0000
0001
0000
1000
0001
1000
0001
,  // measure 41
1000
0000
0000
0000
0010
0000
0100
0000
0002
0000
0000
0023
0000
0000
0000
0000
,  // measure 42
0130
0000
0000
0100
1000
0000
0010
0000
0001
0000
0010
0000
1000
0000
0000
0000
,  // measure 43
0201
0010
0310
0102
0010
0013
0201
0010
,  // measure 44
0310
0102
0010
0013
0011
1100
0011
1100
;

//---------------dance-single - ----------------
#NOTEDATA:;
#CHARTNAME:;
#STEPSTYPE:dance-single;
#DESCRIPTION:;
#CHARTSTYLE:;
#DIFFICULTY:Medium;
#METER:9;
#RADARVALUES:0.393931,0.528818,0.235685,0.176764,0.070706,234.000000,214.000000,20.000000,15.000000,0.000000,0.000000,0.000000,0.000000,0.000000,0.393931,0.528818,0.235685,0.176764,0.070706,234.000000,214.000000,20.000000,15.000000,0.000000,0.000000,0.000000,0.000000,0.000000;
#CREDIT:Pandemonium X;
#DISPLAYBPM:130.000000;
#NOTES:
0000
0000
0000
0000
,
0000
0000
0000
0000
,
0000
0000
0000
0000
,
0000
0000
0000
0000
,
0000
0000
0000
0000
,
1000
0000
0001
0100
0001
0000
0100
0010
,
0110
0110
1001
0000
,
1000
0000
0001
0010
0001
0000
0010
0001
,
1001
1001
0110
0000
,
1000
1000
0001
0000
0010
0010
0100
0000
,
0000
1000
0100
0001
0100
1000
0010
0100
,
0001
0001
0100
0000
0010
0010
1000
0000
,
0001
0000
0000
0000
1000
0000
0000
0000
0001
0100
0000
0100
0000
0100
0000
0000
,
0001
1000
0010
0000
1000
1000
1000
0000
,
0000
0100
0001
0100
1000
0010
0001
0010
,
0100
0010
0100
0000
0001
0001
0001
0000
,
1000
0000
0000
1000
0000
0000
0001
0000
0000
0001
0000
0000
1000
0000
1000
0000
,
0001
0010
0100
1000
,
0012
0100
0010
0103
,
0001
0100
0010
1000
,
2010
0100
0010
3002
,
1003
0010
0100
0001
,
0012
0100
0010
0103
,
0010
0100
0001
1000
,
0001
0010
0000
0000
0010
0100
0000
0000
0100
1000
0000
0000
1000
0001
0000
0000
,
2001
0010
0001
3020
,
0130
0010
0100
0001
1000
0100
0010
0000
,
0001
0010
0010
0000
0001
0000
0200
0000
,
0302
0000
1003
0020
0000
1030
0002
0000
,
2003
0100
0100
3020
,
0130
0010
0100
0001
1000
0100
0010
0000
,
0100
1000
1000
0000
0100
0000
1000
0000
,
0002
0000
0013
0200
0000
0310
0002
0000
,
0003
1000
0001
0000
0100
0010
0000
1000
,
0000
0000
0001
0000
0100
0000
0001
0000
0000
0000
0100
0010
0000
1000
0000
0000
,
0000
0001
1000
0000
0001
0100
0000
0001
,
0000
1000
0100
0010
0001
0001
0001
0001
,
1001
0000
0000
0000
0001
0000
0100
0000
0001
0000
0000
0010
0000
0000
0000
0000
,
0100
0000
0010
0000
0001
0010
0100
0000
,
0110
1100
1010
0101
,
1000
0000
0001
1000
0010
0000
1000
0000
,
1100
0000
0100
1000
0010
0000
0100
0000
,
0010
0000
1000
0010
0000
0010
1000
0000
,
0001
1000
1000
0001
1000
1000
0001
1000
,
1000
0001
1000
1000
1001
1001
1001
1001
;

//---------------dance-single - ----------------
#NOTEDATA:;
#CHARTNAME:;
#STEPSTYPE:dance-single;
#DESCRIPTION:;
#CHARTSTYLE:;
#DIFFICULTY:Easy;
#METER:7;
#RADARVALUES:0.296290,0.343732,0.235685,0.294606,0.000000,176.000000,156.000000,20.000000,25.000000,0.000000,0.000000,0.000000,0.000000,0.000000,0.296290,0.343732,0.235685,0.294606,0.000000,176.000000,156.000000,20.000000,25.000000,0.000000,0.000000,0.000000,0.000000,0.000000;
#CREDIT:Pandemonium X;
#DISPLAYBPM:130.000000;
#NOTES:
0000
0000
0000
0000
,
0000
0000
0000
0000
,
0000
0000
0000
0000
,
0000
0000
0000
0000
,
0000
0000
0000
0000
,
1000
0001
0010
0001
,
1001
1001
1001
0000
,
1000
0001
0010
0001
,
1001
1001
1001
0000
,
0001
0000
0100
0000
0010
0010
0010
0000
,
0100
0001
1000
0100
,
0010
0000
0001
0000
1000
1000
1000
0000
,
0001
0000
1000
0000
0010
1000
0010
0000
,
1000
0000
0001
0000
0010
0010
0010
0000
,
0001
0010
0100
1000
,
0100
0000
1000
0000
0010
0010
0010
0000
,
1000
0001
0010
0001
,
1000
0100
0010
0001
,
2200
0000
3300
0000
,
1000
0001
0100
0001
,
2020
0000
3030
0000
,
1000
0001
0010
0001
,
0220
0000
0330
0000
,
1000
0001
0100
0001
,
1002
1000
1003
1000
,
1002
0103
0001
0020
,
0032
0103
0020
1030
,
0200
1300
0010
0200
,
0302
0013
0002
1003
,
0120
1030
0100
0020
,
0230
1300
0020
1030
,
0002
1003
0100
0020
,
0230
1300
0020
0130
,
0001
1000
0010
1000
,
0100
0000
0010
0000
0001
0000
0010
0001
,
0010
0001
0100
0010
,
1000
0000
0001
0000
0100
0010
0100
0010
,
0100
0010
2000
0000
,
3001
0010
0001
1000
,
0101
1100
0101
1100
,
0001
1000
0010
1000
,
0002
0013
0001
0100
,
0001
1000
0100
0010
,
0011
0000
0000
1100
0000
0000
0011
0000
,
0000
1100
0000
0000
0001
0001
1000
1000
;

//---------------dance-single - ----------------
#NOTEDATA:;
#CHARTNAME:;
#STEPSTYPE:dance-single;
#DESCRIPTION:;
#CHARTSTYLE:;
#DIFFICULTY:Beginner;
#METER:4;
#RADARVALUES:0.134677,0.210938,0.058921,0.035353,0.000000,80.000000,75.000000,5.000000,3.000000,0.000000,0.000000,0.000000,0.000000,0.000000,0.134677,0.210938,0.058921,0.035353,0.000000,80.000000,75.000000,5.000000,3.000000,0.000000,0.000000,0.000000,0.000000,0.000000;
#CREDIT:Pandemonium X;
#DISPLAYBPM:130.000000;
#NOTES:
0000
0000
0000
0000
,
0000
0000
0000
0000
,
0000
0000
0000
0000
,
0000
0000
0000
0000
,
0000
0000
0000
0000
,
1000
0000
0001
0000
,
0100
0100
0100
0000
,
0001
0000
1000
0000
,
0010
0010
0010
0000
,
1001
0000
1000
0000
,
0010
0000
0000
0000
,
1000
0000
0001
0000
,
0010
0000
0000
0000
,
0001
0000
1000
0000
,
0100
0000
0000
0000
,
1000
0000
0010
0000
,
0100
0000
0000
0000
,
0001
0000
0000
0000
,
0020
0000
0030
0000
,
0100
0000
0000
0000
,
2000
0000
3000
0000
,
0001
0000
0000
0000
,
0200
0000
0300
0000
,
0010
0000
0000
0000
,
1000
0000
0001
0000
,
0110
0000
0000
0010
,
0010
0000
1000
0000
,
0001
0000
0000
0010
,
0010
0000
0001
0000
,
1001
0000
0000
1000
,
1000
0000
0010
0000
,
1000
0000
0000
0100
,
0100
0000
1000
0000
,
0010
0000
0010
0000
,
0010
0000
0010
0000
,
0100
0000
0100
0000
,
0100
0000
0100
0100
,
1001
0001
1000
0000
,
0010
0000
0000
0000
,
1000
0100
0010
0001
,
0000
0000
0000
0000
,
1001
0001
0100
0000
,
0010
0000
0000
0000
,
1000
0000
1000
1000
0000
0000
1000
0000
,
0000
1000
0000
0000
0001
0000
0001
0000
;
