#TITLE:AGEHA;
#SUBTITLE:;
#ARTIST:Ryu☆;
#TITLETRANSLIT:;
#SUBTITLETRANSLIT:;
#ARTISTTRANSLIT:;
#GENRE:;
#CREDIT:;
#BANNER:AGEHA.png;
#BACKGROUND:AGEHA-bg.png;
#LYRICSPATH:;
#CDTITLE:;
#MUSIC:AGEHA.ogg;
#OFFSET:0.000000;
#SAMPLESTART:93.333328;
#SAMPLELENGTH:16.000000;
#SELECTABLE:YES;
#BPMS:0.000000=180.000000
,40.000000=90.000000
,56.000000=180.000000
,192.000000=90.000000
,224.000000=180.000000
;
#STOPS:
;
#BGCHANGES:0.000=AGEHA.avi=1.000=1=0=0=StretchNoLoop==CrossFade==,
99999=-nosongbg-=1.000=0=0=0 // don't automatically add -songbackground-
;
#KEYSOUNDS:;
#ATTACKS:;

//---------------dance-single - ----------------
#NOTES:
     dance-single:
     :
     Hard:
     14:
     0.638160,0.595066,1.030240,0.148355,0.057693,542.000000,417.000000,125.000000,18.000000,0.000000,0.000000,0.638160,0.595066,1.030240,0.148355,0.057693,542.000000,417.000000,125.000000,18.000000,0.000000,0.000000:
0000
0000
0000
0000
,
1001
0000
0011
0000
0001
0011
0000
1001
,
0000
1010
0000
0010
0110
0000
1001
0000
,
0001
0100
1000
0100
0101
0000
0001
0010
,
1000
0010
0011
0000
0001
1000
0110
0000
,
1001
0000
1001
0000
1000
1010
0000
0101
,
0000
0101
0000
0001
0011
0000
0011
0000
,
1000
0010
0001
0010
1010
0000
1000
0100
,
0001
0100
1100
0000
0100
0010
1001
0000
,
0110
0000
0000
0100
,
0002
0000
0000
0000
0000
0013
0100
0010
0002
0000
0000
0000
2003
0000
0000
0000
,
3010
0200
0000
0301
0020
0000
0032
0000
,
2003
0000
0000
0000
0000
3001
0010
0001
0200
0000
0000
0000
0000
0000
0000
0000
,
0320
0000
1030
0000
0002
0000
0103
0001
,
1000
0010
1010
0000
0001
0010
0011
0000
,
1000
0010
1010
0000
0001
0010
0011
0000
,
1000
0100
1100
0000
0001
0100
0101
0000
,
1000
0100
1100
0000
0001
0100
0101
0000
,
1000
0001
1001
0000
0001
1000
1001
0000
,
0100
0010
0110
0000
0010
0100
0110
0000
,
1000
0100
0001
0100
1000
0000
1000
0100
,
0001
0100
1000
0000
0100
0010
0001
0000
,
1001
0000
1010
0000
0001
0011
0000
1001
,
0000
0101
0000
1000
1010
0000
0101
0000
,
0001
0010
1000
0010
0011
0000
0001
0100
,
1000
0100
0101
0000
0001
1000
0110
0000
,
1001
0000
0101
0000
1000
1100
0000
1001
,
0000
1010
0000
0001
0101
0000
1010
0000
,
1000
0100
0001
0100
1100
0000
1000
0010
,
0001
0010
1010
0000
1000
0001
0110
0000
,
1001
0000
0000
0000
,
0000
0000
0000
0000
,
0011
0011
1100
1100
,
0011
0011
1100
1100
,
0101
0101
1010
1010
,
0101
0101
1010
1010
,
1001
1001
1001
1001
,
0110
0110
0110
0110
,
1001
0110
1001
0110
,
1000
0001
0000
0000
0010
0100
0000
0000
1000
0000
0000
0000
1001
0000
0000
0000
,
1000
0010
0100
0001
0010
0100
1000
0000
,
0100
0010
0001
1000
0001
0010
0100
0000
,
0010
0001
0100
0001
1000
0100
0010
0000
,
0100
1000
0010
0100
0001
0010
0100
1000
,
0001
0100
0001
0010
0100
0010
0001
0000
,
1000
0010
1000
0001
1000
0100
0010
0000
,
0100
1000
0010
0100
0001
0010
0100
0000
,
0010
0001
1000
0010
1000
0001
0010
0100
,
1100
0000
0000
0200
,
0310
0000
0010
0100
1000
0000
0000
0000
1000
0000
1000
0100
0010
0000
0000
0000
,
0010
0000
0010
0001
0100
0000
0000
0000
0100
0000
0100
0010
1000
0000
0000
0000
,
0001
0000
0001
1000
0010
0000
0000
0000
0010
0000
0010
1000
0100
0000
0000
0000
,
0100
0000
0100
0010
0001
0000
0000
0000
0001
0000
0001
0010
0100
0000
0010
0000
,
1001
0100
0020
0000
1030
0100
0020
0000
,
0130
1000
0002
0000
2003
0000
3020
0000
,
0230
0000
0302
0000
,
0013
1000
0010
0001
1000
0000
0001
0100
,
1000
0100
0001
0000
1000
0001
0100
0000
,
1010
0000
0101
0000
0001
0011
0000
1100
,
0000
0101
0000
0010
1001
0000
0110
0000
,
1000
0100
0001
0100
1100
0000
1000
0010
,
0001
0010
1010
0000
0010
0100
1001
0000
,
0011
0000
0011
0000
0010
0110
0000
1100
,
0000
1010
0000
1000
1100
0000
0101
0000
,
0001
0010
1000
0010
0011
0000
0001
0100
,
1000
0100
0101
0000
0001
1000
0110
0000
,
1001
0000
1010
0000
0001
0101
0000
0011
,
0000
1010
0000
0001
0011
0000
1001
0000
,
0001
0100
1000
0100
0110
0000
0100
1000
,
0100
0001
0101
0000
0001
0010
0110
0000
,
1100
0000
0011
0000
0010
0110
0000
1100
,
0000
0101
0000
0001
1001
0000
0110
0000
,
1001
0010
0100
0001
1000
0000
1001
0100
,
0010
0001
1000
0000
1000
0001
1000
0001
,
1000
0100
0001
0100
1000
0000
1000
0100
,
0001
0100
1000
0000
1000
0100
0010
0000
,
1001
0000
0000
0000
;

//---------------dance-single - ----------------
#NOTES:
     dance-single:
     :
     Medium:
     13:
     0.542789,0.571165,0.651111,0.156596,0.016484,461.000000,382.000000,79.000000,19.000000,0.000000,0.000000,0.542789,0.571165,0.651111,0.156596,0.016484,461.000000,382.000000,79.000000,19.000000,0.000000,0.000000:
0000
0000
0000
0000
,
1000
0000
0001
0000
0010
0001
0000
0100
,
0000
0010
0000
1000
0100
0000
0100
0000
,
1000
0100
0010
0001
1000
0000
1000
0100
,
0010
0001
1000
0000
0100
0010
0100
0000
,
1000
0000
0010
0000
0100
0001
0000
0010
,
0000
0010
0000
0001
1000
0000
1000
0000
,
1000
0100
0010
0001
1000
0000
1000
0100
,
0010
0001
1000
0000
0100
0010
0100
0000
,
1001
0000
0000
0001
,
1000
0000
0000
0000
0000
0100
1000
0010
2000
0000
0000
0000
3002
0000
0000
0000
,
0013
0200
0000
0310
0002
0000
0203
0000
,
0320
0000
0000
0000
0000
0130
0001
0100
0020
0000
0000
0000
0000
0000
0000
0000
,
2030
3100
0002
0103
,
0010
1010
1000
1010
,
0001
0101
0100
0101
,
0001
0011
0010
0011
,
1000
1010
0101
1010
,
0001
1001
1000
1001
,
0010
0110
0100
0110
,
0001
0100
0010
1000
0001
0000
0001
0100
,
0010
1000
0001
0000
1000
0001
0100
0000
,
0010
0000
1000
0000
0100
0010
0000
0100
,
0000
0100
0000
0100
0010
0000
0010
0000
,
0001
0010
0100
1000
0001
0000
0001
0010
,
0100
1000
0001
0000
0001
1000
0100
0000
,
1000
0000
0001
0000
0100
0001
0000
0010
,
0000
0010
0000
0100
1000
0000
1000
0000
,
0001
0010
0100
1000
0001
0000
0001
0010
,
0100
1000
0001
0000
0001
1000
0010
0000
,
1002
0000
0000
0000
,
0010
0010
0010
0013
,
1100
1100
1100
1100
,
0101
0101
0101
0101
,
1010
1010
1010
1010
,
0011
0011
1001
0110
,
1001
1001
1001
1001
,
0110
0110
0110
0110
,
1010
1010
1010
1010
,
1100
0101
1100
0101
,
1000
0100
0010
0000
0100
1000
0010
0000
,
0100
0010
1000
0000
0001
0010
0100
0000
,
0010
0001
0100
0000
0010
0100
0001
0000
,
0100
0010
1000
0000
1010
0000
0101
0000
,
1010
1000
0010
0000
0100
0010
1000
0000
,
0001
0010
0100
0000
0010
0001
0100
0000
,
0010
1000
0001
0000
0010
0001
0100
0000
,
0010
0100
0001
0000
1000
0100
0010
0001
,
2000
0000
3000
0020
,
0130
0001
0010
0000
0100
0010
0001
0000
,
1000
0100
0010
0000
0100
1000
0010
0000
,
0100
1000
0100
0000
0100
0001
0100
0000
,
0010
0100
0001
0000
1000
0100
0010
0000
,
0100
1000
0010
0100
0001
0010
0200
0000
,
0310
0001
1000
0010
2000
0000
3002
0000
,
0023
0000
0032
0000
,
1003
0100
0010
0001
1000
0000
1000
0100
,
0010
0001
1000
0000
1000
0001
1000
0000
,
1001
0000
1000
0000
0001
0100
0000
0001
,
0000
0100
0000
0001
0010
0000
0010
0000
,
0100
0010
0001
1000
0100
0000
0100
0010
,
0001
1000
0100
0000
0100
1000
0010
0000
,
0110
0000
0100
0000
0010
1000
0000
0001
,
0000
0001
0000
1000
0001
0000
0001
0000
,
0010
0100
1000
0001
0010
0000
0100
1000
,
0001
0010
0100
0000
0100
0010
0001
0000
,
1001
1001
1001
1001
,
0110
0110
0110
0110
,
1010
1010
0101
1010
,
1010
0101
1010
0110
,
1001
1001
1001
1001
,
0110
0110
0110
0110
,
1010
0010
0100
0001
1000
0000
1010
0010
,
1000
0001
1000
0000
0010
1000
0010
1000
,
0010
1000
0001
0100
0010
0000
1000
0010
,
0100
0001
1000
0000
0001
0010
0100
0000
,
2200
0000
0000
0000
,
3300
0000
0000
0000
;

//---------------dance-single - ----------------
#NOTES:
     dance-single:
     :
     Easy:
     7:
     0.329677,0.407151,0.123629,0.000000,0.000000,280.000000,265.000000,15.000000,0.000000,0.000000,0.000000,0.329677,0.407151,0.123629,0.000000,0.000000,280.000000,265.000000,15.000000,0.000000,0.000000,0.000000:
0000
0000
0000
0000
,
1000
0001
0010
1000
,
0010
0001
1000
1000
,
0100
0100
0100
0010
,
0100
0100
0010
0100
,
0010
0001
0100
1000
,
0100
0010
1000
0001
,
0010
0010
0100
0010
,
0010
0100
0010
0100
,
1001
0000
0000
0001
,
1000
0000
0001
0000
,
0100
0000
0010
1000
,
0100
0000
1000
0000
,
0001
1000
0010
0100
,
0001
0100
0000
0010
,
0000
1000
0000
0100
,
0000
0010
0000
0001
,
0000
1000
0001
1000
,
0010
1000
0000
0100
,
0000
0010
0000
0100
,
1000
1000
0001
1000
,
1000
0001
1000
0001
,
1000
0010
0100
0010
,
1000
0001
0010
0100
,
1000
1000
0010
1000
,
1000
0010
1000
0010
,
1000
0001
0010
0100
,
0010
0001
0100
0010
,
1000
1000
0001
1000
,
1000
0001
1000
0001
,
0110
0000
0000
0000
,
0000
0000
0000
0000
,
1000
1000
1000
1000
,
0100
0100
0100
0100
,
0010
0010
0010
0010
,
0001
0001
0001
0001
,
1000
0001
1000
0001
,
0100
0010
0100
0010
,
1000
0001
0100
0010
,
1001
1001
1001
1001
,
0001
0001
1000
1000
,
0010
0010
0100
0100
,
0001
0001
0100
0100
,
0010
0010
1010
1010
,
1000
1000
0001
0001
,
0010
0010
0001
0001
,
1000
1000
0100
0100
,
0010
0010
0001
0001
,
1001
0000
0000
1000
,
0010
0000
1000
0000
,
0100
0000
1000
0000
,
0001
0000
0100
0000
,
0010
0000
1000
0000
,
0001
1000
0010
0000
1000
0001
0100
0000
,
0001
0010
0100
0000
0010
0000
0100
0000
,
1000
0000
0001
0000
,
1000
0001
0100
0001
,
1000
0100
1000
0001
,
1001
1000
0010
1000
,
0001
0010
0100
1000
,
0010
0010
1000
0010
,
0010
1000
0010
1000
,
0001
0100
0001
0010
,
0001
1000
0100
0010
,
0001
0001
0100
0001
,
0001
0100
0001
0100
,
0001
0001
0001
0001
,
1000
1000
1000
1000
,
0010
0010
0010
0010
,
0100
0100
0100
0100
,
0010
0010
1000
1000
,
0001
0001
0100
0100
,
1001
0000
0000
0110
,
0000
0000
1001
0110
,
1000
1000
0001
1000
,
1000
0001
1000
0001
,
0110
0000
0000
0000
;

//---------------dance-single - ----------------
#NOTES:
     dance-single:
     :
     Beginner:
     5:
     0.191919,0.281874,0.074177,0.000000,0.000000,163.000000,154.000000,9.000000,0.000000,0.000000,0.000000,0.191919,0.281874,0.074177,0.000000,0.000000,163.000000,154.000000,9.000000,0.000000,0.000000,0.000000:
// measure 0
0000
0000
0000
0000
,  // measure 1
1000
0000
0001
0000
,  // measure 2
1000
0000
0001
0000
,  // measure 3
1000
1000
1000
0000
,  // measure 4
0001
0001
0001
0000
,  // measure 5
0100
0000
0010
0000
,  // measure 6
0100
0000
0010
0000
,  // measure 7
0100
0100
0100
0000
,  // measure 8
0010
0010
0010
0000
,  // measure 9
1001
0000
0000
0000
,  // measure 10
1000
0000
0100
0000
,  // measure 11
1000
0000
0010
0100
,  // measure 12
0010
0000
1000
0000
,  // measure 13
0100
1000
0010
0100
,  // measure 14
0000
0001
0000
0001
,  // measure 15
0000
0001
0000
0001
,  // measure 16
0000
1000
0000
1000
,  // measure 17
0000
1000
0000
1000
,  // measure 18
0000
0010
0000
0010
,  // measure 19
0000
0010
0000
0010
,  // measure 20
0100
0000
0000
0100
,  // measure 21
0000
0000
0100
0000
,  // measure 22
0010
0000
1000
0000
,  // measure 23
0001
0000
0010
0000
,  // measure 24
0100
0100
0100
0000
,  // measure 25
0100
0100
0100
0000
,  // measure 26
0010
0000
0001
0000
,  // measure 27
1000
0000
0100
0000
,  // measure 28
1000
1000
1000
0000
,  // measure 29
1000
1000
1000
0000
,  // measure 30
1001
0000
0000
0000
,  // measure 31
0000
0000
0000
0000
,  // measure 32
0010
0000
0000
0000
,  // measure 33
1000
0000
0000
0000
,  // measure 34
0100
0000
0000
0000
,  // measure 35
0010
0000
0001
0000
,  // measure 36
1000
0000
0000
0000
,  // measure 37
0010
0000
0000
0000
,  // measure 38
1000
0000
0000
0000
,  // measure 39
0001
0001
1000
1000
,  // measure 40
1001
0000
0001
0000
,  // measure 41
1000
0000
0010
0000
,  // measure 42
1000
0000
0100
0000
,  // measure 43
1000
0000
0010
0000
,  // measure 44
1000
0000
0001
0000
,  // measure 45
0010
0000
0001
0000
,  // measure 46
0100
0000
0010
0000
,  // measure 47
1000
0000
0010
0000
,  // measure 48
1001
0000
0000
0000
,  // measure 49
1000
0000
0001
0000
,  // measure 50
0100
0000
0001
0000
,  // measure 51
0010
0000
0100
0000
,  // measure 52
1000
0000
0100
0000
,  // measure 53
1000
0000
0100
0000
,  // measure 54
0010
0000
0001
0000
,  // measure 55
1000
0000
0001
0000
,  // measure 56
0100
0000
0000
0100
,  // measure 57
0000
0000
0100
0000
,  // measure 58
0010
0000
1000
0000
,  // measure 59
0001
0000
0010
0000
,  // measure 60
0100
0100
0100
0000
,  // measure 61
0100
0100
0100
0000
,  // measure 62
0010
0000
0100
0000
,  // measure 63
1000
0000
0001
0000
,  // measure 64
1000
1000
1000
0000
,  // measure 65
1001
0000
0000
0000
,  // measure 66
0010
0000
1000
0000
,  // measure 67
0100
0000
0010
0000
,  // measure 68
0001
1000
0001
0000
,  // measure 69
1000
0001
1000
0000
,  // measure 70
0001
0000
0100
0000
,  // measure 71
0010
0000
1000
0000
,  // measure 72
0110
0000
0000
0110
,  // measure 73
0000
0000
0110
0010
,  // measure 74
1001
0000
0000
1000
,  // measure 75
0000
0000
0001
0000
,  // measure 76
0100
0000
0000
0000
;
