#TITLE:405nm (Ryu☆mix);
#SUBTITLE:;
#ARTIST:Another Infinity;
#TITLETRANSLIT:;
#SUBTITLETRANSLIT:;
#ARTISTTRANSLIT:;
#GENRE:;
#CREDIT:;
#BANNER:405nm -Ryu Mix-.png;
#BACKGROUND:405nm -Ryu Mix--bg.png;
#LYRICSPATH:;
#CDTITLE:;
#MUSIC:405nm (Ryu mix).ogg;
#OFFSET:-0.086000;
#SAMPLESTART:40.754002;
#SAMPLELENGTH:14.237286;
#SELECTABLE:YES;
#BPMS:0.000000=177.000000
;
#STOPS:48.000000=2.373000,
111.000000=0.339000,
214.000000=0.339000
;
#BGCHANGES:;
#KEYSOUNDS:;
#ATTACKS:;

//---------------dance-single - ----------------
#NOTES:
     dance-single:
     :
     Hard:
     15:
     0.644746,0.903333,0.045866,0.055039,0.376102,492.000000,487.000000,5.000000,6.000000,0.000000,0.000000,0.644746,0.903333,0.045866,0.055039,0.376102,492.000000,487.000000,5.000000,6.000000,0.000000,0.000000:
// measure 0
0000
0000
0000
0000
,  // measure 1
0000
0000
0000
0000
,  // measure 2
0000
0000
0000
0000
,  // measure 3
0000
0000
0000
0000
,  // measure 4
1000
0001
0010
0001
0100
0010
0010
0000
,  // measure 5
0100
0001
0010
0001
0100
0010
1000
0100
,  // measure 6
1000
0010
1000
0100
0010
0100
0000
0000
,  // measure 7
1000
0100
1000
0010
1000
0001
0010
0100
,  // measure 8
1000
0001
0010
0001
1000
0010
0010
0000
,  // measure 9
0100
0001
0010
0001
1000
0100
0010
0100
,  // measure 10
1000
0001
1000
0001
1000
0001
1000
0001
1000
0001
1000
0001
1000
0001
1000
0001
,  // measure 11
0010
0010
0010
0010
0010
0000
0000
0000
,  // measure 12
1001
0000
0001
0001
0001
0100
0100
0100
,  // measure 13
0100
0100
0010
0010
0010
0010
1000
1000
,  // measure 14
0001
0001
1000
1000
1000
0100
0100
0100
,  // measure 15
0100
0100
1000
1000
1000
1000
0010
0010
,  // measure 16
0100
0100
0001
0001
0001
1000
1000
1000
,  // measure 17
1000
1000
0010
0010
0010
0010
1000
1000
,  // measure 18
0001
0001
0010
0010
0010
0100
0100
0100
,  // measure 19
0100
0100
0010
0010
0010
0010
0001
0001
,  // measure 20
1000
0000
1000
0000
0001
0000
0000
0010
0000
0000
0100
0000
0000
0010
0000
0000
,  // measure 21
0001
0000
1000
0000
0010
0000
0000
0100
0000
0000
0010
1000
0000
0100
0000
0010
,  // measure 22
0001
0000
0010
0000
0100
0000
0000
0010
0000
0000
0001
0000
0000
1000
0000
0000
,  // measure 23
0100
0000
1000
0000
0010
0000
0000
1000
0000
0000
0010
1000
0000
0001
0000
0100
,  // measure 24
0001
0010
0200
0000
1300
0000
0010
0001
,  // measure 25
0100
0010
2000
0000
0001
0000
3010
0000
,  // measure 26
0100
0000
0001
0000
0010
0100
0010
0100
0010
0100
0010
0100
0010
0100
0010
0100
,  // measure 27
0010
0100
0010
0100
0010
0000
0010
0000
0010
0000
0010
0000
0010
0000
0000
0000
,  // measure 28
0001
0000
0000
0010
0000
0000
1000
0000
0000
0010
0000
0000
0001
0000
0100
0000
,  // measure 29
0010
0000
0000
1000
0000
0000
0010
1000
0000
0001
0000
0100
0010
0000
1000
0000
,  // measure 30
0001
0000
0000
0100
0000
0000
1000
0000
0000
0100
0000
0000
0010
0000
1000
0000
,  // measure 31
0100
0000
0000
0010
0000
0000
0100
1000
0000
0010
0000
0100
0010
0000
1000
0000
,  // measure 32
0001
0000
0000
0100
0000
0000
1000
0000
0000
0100
0000
0000
0010
0000
1000
0000
,  // measure 33
0001
0000
0000
0100
0000
0000
0010
1000
0000
0100
0000
1000
0001
0000
0010
0000
,  // measure 34
0001
0000
0000
0010
0000
0000
1000
0000
0000
0010
0000
0000
0001
0000
1000
0000
,  // measure 35
0010
0010
0100
0100
0010
0000
0100
0010
,  // measure 36
1000
0000
0100
0000
0001
0000
0100
1000
,  // measure 37
0010
0000
0000
0000
0000
0000
0100
0000
0100
0000
0000
0000
0000
0000
0010
1000
,  // measure 38
0001
0000
0100
0000
0001
0010
0001
1000
,  // measure 39
0100
0000
0010
0001
1000
0000
0000
0000
,  // measure 40
0001
0000
0100
0000
1000
0000
0100
0010
,  // measure 41
1000
0000
0000
0001
0001
0000
0010
0001
,  // measure 42
1000
0000
0100
0000
0001
0100
0010
0001
,  // measure 43
1000
1000
1000
1000
1000
0000
0000
0000
,  // measure 44
0001
0010
0100
0010
0000
0001
0000
0010
,  // measure 45
0000
0100
0000
0010
0100
0010
0001
1000
,  // measure 46
0010
0100
0010
1000
0000
0100
0000
0010
,  // measure 47
0000
0100
0000
0010
0100
1000
0100
0010
,  // measure 48
0200
0000
1300
0000
0100
0100
0010
0010
,  // measure 49
0002
0000
0100
0000
1003
0100
0001
0100
,  // measure 50
1000
0001
1000
0001
1000
0001
1000
0001
1000
0001
1000
0001
1000
0001
1000
0001
,  // measure 51
1000
0010
0000
1000
0100
0001
0100
0010
,  // measure 52
0001
0000
0000
0010
0000
0000
0100
0000
0000
1000
0000
0000
0100
0000
0010
0000
,  // measure 53
0001
0000
0001
0000
0001
0000
0001
0000
0001
0000
0000
0000
1001
0000
0000
1000
,  // measure 54
0000
0000
0010
0000
0000
0001
0000
0000
0010
0000
0100
0000
0001
0000
0000
0010
,  // measure 55
0000
0000
0100
0010
0000
0001
0000
0010
0100
0000
1000
0000
0001
0000
0000
0100
,  // measure 56
0000
0000
1000
0000
0000
0100
0000
0000
0010
0000
1000
0000
0001
0000
0000
0100
,  // measure 57
0000
0000
0010
1000
0000
0100
0000
0010
0100
0000
1000
0000
0001
0000
0000
0010
,  // measure 58
0000
0000
1000
0000
0000
0010
0000
0000
0001
0000
1000
0000
0020
0000
0000
0000
,  // measure 59
0000
0000
0230
0000
0301
1000
0010
0000
,  // measure 60
1000
0000
0010
0000
1000
0001
0100
0000
,  // measure 61
0000
0000
0010
0000
0010
0000
0000
0000
0000
0000
0100
0001
1000
0000
0000
0000
,  // measure 62
0001
0000
1000
0100
0010
0100
1000
0000
,  // measure 63
0100
1000
0010
0000
0000
0000
0100
0000
,  // measure 64
0001
0000
0010
0000
0100
1000
0010
0000
,  // measure 65
0000
0100
0100
0000
0010
1000
0001
0000
,  // measure 66
1000
0000
0001
0010
0100
0010
0001
0000
,  // measure 67
1000
0010
0000
1000
,  // measure 68
0100
0000
0001
0100
1000
0010
0001
0000
,  // measure 69
0010
1000
0010
0100
,  // measure 70
0001
0000
1000
0100
0001
0100
1000
0000
,  // measure 71
0100
0010
0100
0000
0000
0000
1000
0000
,  // measure 72
0100
0000
0001
0100
1000
0100
0010
0000
,  // measure 73
0010
0000
0100
0000
1000
0000
0000
0000
1000
0000
0100
0000
0010
0100
0010
0100
,  // measure 74
0010
0100
0010
0100
0010
0100
0010
0100
0010
0100
0010
0100
0010
0000
0010
0000
,  // measure 75
0011
0010
0110
0000
0000
0000
1100
0000
;

//---------------dance-single - ----------------
#NOTES:
     dance-single:
     :
     Easy:
     8:
     0.328925,0.382179,0.091732,0.110079,0.000000,251.000000,241.000000,10.000000,12.000000,0.000000,0.000000,0.328925,0.382179,0.091732,0.110079,0.000000,251.000000,241.000000,10.000000,12.000000,0.000000,0.000000:
0000
0000
0000
0000
,
0000
0000
0000
0000
,
0000
0000
0000
0000
,
0000
0000
0000
0000
,
1000
0001
0010
0001
,
1000
0100
0010
0100
,
1000
0010
0100
0000
,
0100
0010
1000
0001
,
0010
0001
1000
0100
,
1000
0010
0100
0001
,
0010
0100
0010
0001
,
1000
0001
1000
0001
1000
0000
0000
0000
,
0110
0000
0100
0000
0000
0001
0000
0000
,
0000
0010
0000
0100
,
0010
0000
0001
0000
0000
1000
0000
0000
,
0000
0001
0000
0100
,
0001
0000
0100
0000
0000
0010
0000
0000
,
0000
1000
0000
0100
,
0010
0000
0100
0000
0000
1000
0000
0000
,
0000
0010
0000
0100
,
0010
1000
0010
0100
,
0000
0010
1000
0001
,
0000
0010
0100
1000
,
0000
0100
0010
0001
,
0000
2020
0000
3030
,
0000
0202
0000
0303
,
0000
2002
0000
0000
,
3003
0000
0001
0100
0001
0100
0001
0000
,
1000
0010
1000
0001
,
0010
1000
0010
0001
,
1000
0100
1000
0001
,
0100
1000
0100
0010
,
1000
0001
0010
0001
,
1000
0100
0001
0100
,
1000
0010
0100
0001
,
1000
0010
1000
0010
1000
0000
0010
0000
,
1000
0001
0010
0100
,
0010
0000
0000
0001
0001
0000
0000
0000
,
0010
0001
0100
0010
,
1000
0000
0001
1000
0001
0000
0000
0000
,
1000
0010
1000
0100
,
0010
0000
0000
0100
0100
0000
0010
0000
,
0001
0100
0010
1000
,
0001
0100
0001
0100
0001
0000
0000
0000
,
1000
0000
0000
0000
,
0001
0000
0000
0000
,
0010
0000
0000
0000
,
0100
0000
0000
0000
,
2002
0000
3003
0000
,
2020
0000
3030
0000
,
0202
0000
0000
0000
,
0303
0000
0000
0000
,
1001
0000
0000
0000
,
0001
0010
0100
1000
0001
0000
1000
0000
,
0001
0010
0001
0100
,
0001
0010
0001
1000
,
0100
0010
0100
1000
,
0010
0100
0010
1000
,
0001
0000
0010
0000
0100
0000
1000
0001
,
1000
0001
1000
0000
0000
0000
0001
0000
,
0010
0001
1000
0100
,
0000
0010
0010
0000
0000
0000
0100
0000
,
1000
0010
0001
0010
,
1000
0001
0010
0000
0000
0000
0100
0000
,
0010
0001
1000
0100
,
0000
0010
0010
0000
0100
0000
0010
0000
,
0001
1000
0010
0100
,
0010
1000
0000
1001
,
0001
0010
0001
0100
,
0100
0100
0001
1000
,
0010
0001
0010
0100
,
0010
1000
0001
0000
0000
0000
0010
0000
,
0001
1000
0100
0010
,
0010
0010
0100
0010
,
0001
0000
0100
0000
0010
0000
1000
0001
,
1000
0001
1000
0000
0000
0000
0110
0000
;

//---------------dance-single - ----------------
#NOTES:
     dance-single:
     :
     Medium:
     11:
     0.432452,0.486410,0.110079,0.293543,0.146771,330.000000,318.000000,12.000000,32.000000,0.000000,0.000000,0.432452,0.486410,0.110079,0.293543,0.146771,330.000000,318.000000,12.000000,32.000000,0.000000,0.000000:
// measure 0
0000
0000
0000
0000
,  // measure 1
0000
0000
0000
0000
,  // measure 2
0000
0000
0000
0000
,  // measure 3
0000
0000
0000
0000
,  // measure 4
1000
0000
0100
0000
1000
0010
1000
0000
,  // measure 5
0010
0100
0001
0010
,  // measure 6
0100
0010
0001
0000
,  // measure 7
0001
0010
0100
0010
,  // measure 8
0001
0000
1000
0000
0010
0100
0010
0000
,  // measure 9
0100
0010
1000
0001
,  // measure 10
0010
0001
1000
0010
,  // measure 11
0100
0001
0100
0001
0100
0000
0000
0000
,  // measure 12
1010
0000
0002
0000
0000
2003
0000
0000
,  // measure 13
0000
3020
0000
2030
,  // measure 14
3200
0000
0320
0000
0000
0230
0000
0000
,  // measure 15
0000
0320
0000
0032
,  // measure 16
0203
0000
0320
0000
0000
0230
0000
0000
,  // measure 17
0000
0320
0000
2030
,  // measure 18
3002
0000
2003
0000
0000
3200
0000
0000
,  // measure 19
0000
0320
0000
0032
,  // measure 20
0023
0000
0000
0000
0130
0000
0000
1000
0000
0000
0001
0000
0000
0100
0000
0000
,  // measure 21
0010
0000
1000
0000
0001
0000
0000
1000
0000
0000
0010
0000
0000
1000
0000
0000
,  // measure 22
0001
0000
0000
0000
1000
0000
0000
0100
0000
0000
0010
0000
0000
0100
0000
0000
,  // measure 23
1000
0000
0100
0000
0010
0000
0000
0100
0000
0000
1000
0000
0000
0010
0000
0000
,  // measure 24
1000
0022
0000
0033
,  // measure 25
0000
0202
0000
0303
,  // measure 26
0000
2002
0000
0000
,  // measure 27
3003
0000
0001
0100
0010
1000
0001
0000
,  // measure 28
1000
0000
0000
0100
0000
0000
1000
0000
0000
0010
0000
0000
0100
0000
0010
0000
,  // measure 29
1000
0000
0000
0001
0000
0000
0010
0000
0000
0100
0000
0000
0010
0000
0001
0000
,  // measure 30
0100
0000
0000
0001
0000
0000
0010
0000
0000
0001
0000
0000
1000
0000
0100
0000
,  // measure 31
0010
0000
0000
0100
0000
0000
1000
0000
0000
0010
0000
0000
0100
0000
0010
0000
,  // measure 32
1000
0000
0000
0001
0000
0000
0010
0000
0000
0001
0000
0000
1000
0000
0100
0000
,  // measure 33
0010
0000
0000
0100
0000
0000
1000
0000
0000
0010
0000
0000
0100
0000
0010
0000
,  // measure 34
1000
0000
0000
0001
0000
0000
0010
0000
0000
0100
0000
0000
1000
0000
0001
0000
,  // measure 35
1000
0010
0100
0001
1000
0000
0001
0010
,  // measure 36
0100
0000
0010
0000
0001
0000
0100
0010
,  // measure 37
1000
0000
0000
0100
0100
0000
0000
0010
,  // measure 38
0100
0000
1000
0000
0100
0010
0001
0010
,  // measure 39
0100
0000
0010
0001
0100
0000
0000
0000
,  // measure 40
0010
0000
1000
0000
0001
0000
0100
0001
,  // measure 41
1000
0000
0000
0100
0100
0000
0010
0001
,  // measure 42
0100
0000
0010
0000
0100
0010
1000
0001
,  // measure 43
1000
0010
0001
0010
1000
0000
0000
0000
,  // measure 44
0001
0000
1000
0000
0000
0100
0010
0000
,  // measure 45
0001
0000
0010
0000
0000
0001
0100
0000
,  // measure 46
0010
0000
1000
0000
0000
0100
0010
0000
,  // measure 47
0100
0000
1000
0000
0000
0001
0010
0000
,  // measure 48
0022
0000
0033
0000
,  // measure 49
2200
0000
3300
0000
,  // measure 50
2020
0000
0000
0000
,  // measure 51
3030
0000
0000
0000
,  // measure 52
1001
0000
0000
0000
,  // measure 53
0001
0000
0100
0000
1000
0000
0100
0000
0001
0000
0000
0000
1001
0000
0000
0001
,  // measure 54
0000
0000
0010
0000
0000
0001
0000
0000
1000
0000
0100
0000
0010
0000
0000
0100
,  // measure 55
0000
0000
1000
0000
0000
0010
0000
0000
1000
0000
0010
0000
0100
0000
0000
0001
,  // measure 56
0000
0000
0010
0000
0000
0001
0000
0000
0010
0000
0100
0000
0010
0000
0000
0001
,  // measure 57
0000
0000
1000
0000
0000
0010
0000
0000
1000
0000
0001
0000
0010
0000
0000
0100
,  // measure 58
0000
0000
0010
0000
0000
0001
0000
0000
0010
0000
0001
0000
1000
0000
0010
0000
,  // measure 59
0001
0010
1000
0000
0010
1000
0001
0000
,  // measure 60
1000
0000
0100
0000
0010
0100
1000
0000
,  // measure 61
0000
0010
0010
0000
0000
0100
0010
0000
,  // measure 62
1000
0000
0001
0010
1000
0010
0001
0000
,  // measure 63
0010
0100
1000
0000
0000
0000
0100
0000
,  // measure 64
1000
0000
0010
0000
0100
0001
1000
0000
,  // measure 65
0000
0001
0001
0000
1000
0100
0001
0000
,  // measure 66
0100
0000
1000
0010
0100
0001
0010
0000
,  // measure 67
0100
0010
0000
1001
,  // measure 68
0001
0000
1000
0010
1000
0001
0010
0000
,  // measure 69
0100
0010
0001
0010
,  // measure 70
0100
0000
0010
0001
0010
0100
1000
0000
,  // measure 71
0100
1000
0010
0000
0000
0000
0110
0000
,  // measure 72
0010
0000
0100
0010
1000
0001
0100
0000
,  // measure 73
0001
0010
0100
0000
0100
0010
0001
0000
,  // measure 74
1000
0000
0001
0100
1000
0100
0001
1000
,  // measure 75
0010
0100
0001
0000
0000
0000
1001
0000
;

//---------------dance-single - ----------------
#NOTES:
     dance-single:
     :
     Beginner:
     4:
     0.161187,0.243205,0.027520,0.064213,0.000000,123.000000,120.000000,3.000000,7.000000,0.000000,0.000000,0.161187,0.243205,0.027520,0.064213,0.000000,123.000000,120.000000,3.000000,7.000000,0.000000,0.000000:
0000
0000
0000
0000
,
0000
0000
0000
0000
,
0000
0000
0000
0000
,
0000
0000
0000
0000
,
1000
0000
0000
0000
,
0001
0000
0000
0000
,
0010
0000
0000
0000
,
0010
0000
0000
0000
,
0001
0000
0000
0000
,
1000
0000
0000
0000
,
0010
0000
0000
0000
,
0100
0100
0100
0000
,
0000
1000
0000
0000
,
0000
0010
0000
1000
,
0000
0100
0000
0000
,
0000
0010
0000
0001
,
1000
0001
0000
0100
,
0000
0010
0000
1000
,
0001
0010
0000
0100
,
0000
0010
0000
0001
,
1000
0010
0000
0000
,
0000
1000
0000
0000
,
0000
0100
0000
0000
,
0000
0010
0000
0000
,
0000
0200
0000
0300
,
0000
0020
0000
0030
,
0000
2002
0000
0000
,
0000
3003
0000
0000
,
0001
0000
0000
0000
,
1000
0000
0000
0000
,
0010
0000
0000
0000
,
1000
0000
0100
0000
,
1000
0000
0000
0000
,
0010
0000
0000
0000
,
0100
0000
0001
0000
,
1000
1000
1000
0000
,
0001
0000
1000
0000
,
0010
0000
0000
0000
,
1000
0000
0001
0000
,
0010
0001
0010
0000
,
0001
0000
1000
0000
,
0100
0000
1000
0000
,
0010
0000
1000
0000
,
0001
0001
0001
0000
,
0100
0000
0000
0000
,
0000
0000
0000
0000
,
0010
0000
0000
0000
,
0000
0000
0000
0000
,
2000
0000
3000
0000
,
0002
0000
0003
0000
,
0200
0000
0000
0000
,
0300
0000
0000
0000
,
0110
0000
0000
0000
,
0100
0100
0100
0010
,
0000
0000
0000
1000
,
0000
0001
0000
0010
,
0000
0000
0000
0001
,
0000
1000
0000
0100
,
0000
0000
0000
1000
,
1000
1000
0000
0001
,
0000
1000
0000
0010
,
0000
0000
0000
0100
,
0000
0010
0000
1000
,
0001
1000
0000
0001
,
0000
0010
0000
0001
,
0000
1000
0000
0010
,
0000
1000
0000
0100
,
0010
0100
0000
0010
,
0000
0001
0000
1000
,
1000
0001
0000
1000
,
0000
0010
0000
0100
,
0100
0001
0000
0010
,
0000
0001
0000
1000
,
1000
0001
0000
0010
,
0000
0001
0000
1000
,
0001
0100
0000
0110
;
