#TITLE:25 (Chill Mix);
#SUBTITLE:;
#ARTIST:Serenade;
#TITLETRANSLIT:;
#SUBTITLETRANSLIT:;
#ARTISTTRANSLIT:;
#GENRE:;
#CREDIT:;
#BANNER:25 (Chill Mix).png;
#BACKGROUND:25 (Chill Mix)-bg.png;
#LYRICSPATH:;
#CDTITLE:CDTitle.png;
#MUSIC:25 (Chill Mix).ogg;
#OFFSET:0.000000;
#SAMPLESTART:67.200005;
#SAMPLELENGTH:19.199997;
#SELECTABLE:YES;
#BPMS:0.000000=25.000000
;
#STOPS:
;
#BGCHANGES:;
#KEYSOUNDS:;
#ATTACKS:;

//---------------dance-single - ----------------
#NOTES:
     dance-single:
     :
     Hard:
     13:
     0.444188,0.455158,0.314677,0.119877,1.101371,415.000000,373.000000,42.000000,16.000000,0.000000,0.000000,0.444188,0.455158,0.314677,0.119877,1.101371,415.000000,373.000000,42.000000,16.000000,0.000000,0.000000:
// measure 0
0000
0000
0000
0000
,  // measure 1
1001
0000
0000
0000
0001
0010
0000
0100
0000
1000
0000
0000
0010
0100
0000
0100
0010
0000
0000
0000
1000
0001
0000
0010
0000
0100
0000
0000
0010
0001
0000
0001
0100
0000
0000
0000
0100
0010
0000
1000
0000
0001
0000
0000
0001
1000
0000
1000
0010
0000
0000
0000
1000
0010
0000
0100
0000
0001
0000
0000
0001
0010
0000
0010
,  // measure 2
0100
0000
0000
0000
0100
1000
0000
0010
0000
0100
0000
0010
1000
0001
0000
0100
0010
0000
0000
0000
1000
0100
0000
0010
0000
0100
0000
0100
0010
0001
0000
1000
0100
0000
0000
0010
0100
1000
0000
0010
0000
1000
0000
0001
0010
0100
0000
0100
0010
0000
0000
0010
0100
1000
0000
0001
0000
0100
0000
0010
1000
0001
0000
1000
,  // measure 3
1001
0001
0100
0000
1010
0000
1100
1100
0110
0010
0001
0100
0110
0000
0101
0101
1001
0001
0010
0001
1100
0000
0011
0101
0011
0010
0001
1000
0110
0000
1010
0000
,  // measure 4
1000
0100
0001
0000
0101
0000
0001
0000
0100
0000
0010
0000
0001
0000
1000
0010
0100
0000
0010
0000
1000
0000
0001
0000
1001
0000
0000
0000
1000
0000
0001
0010
1000
0000
0010
0000
0001
0000
1000
0000
1100
0000
0100
0000
0010
0000
0001
0100
1000
0000
0100
0000
0100
0010
0000
1000
0000
0001
0010
0000
0110
0000
1100
0000
,  // measure 5
0110
0010
0001
0100
0110
0100
1001
1001
1010
0001
0100
0010
1010
1000
1100
1100
1000
0100
0010
0001
0011
0010
0110
0110
0011
0010
0001
1100
1010
0001
0101
0001
,  // measure 6
0001
0100
1000
0000
1100
0000
1000
0000
0100
0000
0001
0000
1000
0000
0001
0010
1000
0000
0010
0000
0001
0000
0100
0000
0010
0000
1000
0000
0001
0000
1000
0100
0001
0000
0100
0000
0010
0000
0001
0000
0100
0000
0010
0000
1000
0000
0001
0100
1000
0000
0100
0000
0010
1000
0000
0001
0000
0010
0000
0010
0100
0010
0000
0001
,  // measure 7
2001
0001
0001
0000
0010
0010
0010
0000
0100
0100
0100
0000
0010
0010
3010
0000
0102
0100
0100
0000
0010
0010
0010
0000
0203
0010
0010
0000
0302
1000
1003
0001
,  // measure 8
0200
0010
0010
0000
1000
1000
1000
0000
0010
0010
0010
0000
1000
1000
1000
0000
0302
1000
1000
0000
0010
0010
0010
0000
0203
0010
0010
0000
0001
0301
1000
0001
,  // measure 9
0020
0100
0100
0000
0001
0001
0001
0000
0100
0100
0100
0000
0001
0001
0031
0000
2001
0001
0001
0000
0010
0010
0010
0000
3200
0010
0010
0000
0320
0001
0001
0000
,  // measure 10
0230
1000
1000
0000
0010
0010
0010
0000
1000
1000
1000
0000
0010
0010
0010
0000
2300
0001
0001
0000
0010
0010
0010
0000
3200
0010
0010
0000
1000
1000
1300
0000
,  // measure 11
1001
0000
0000
0001
0000
0100
0000
0010
0000
1000
0000
0100
0010
0001
0000
0010
0100
0000
0000
0010
0000
0001
0000
0100
0000
0010
0000
1000
0100
0010
0000
0100
1000
0000
0000
0010
0000
0100
0000
0001
0000
0010
0000
0100
0010
0001
0000
0010
0100
0000
0000
0010
0000
0001
0000
0100
0000
0010
0000
1000
0010
0100
0000
0010
,  // measure 12
1000
0000
0000
0001
0000
1000
0000
0100
0000
0001
0000
1000
0100
0001
0000
0100
1000
0000
0000
0010
0000
1000
0000
0010
0000
0001
0000
1000
0010
0001
0000
0010
1000
0000
0000
0010
0000
0100
0000
0001
0000
1000
0000
0001
0100
1000
0000
0100
0001
0000
0000
0001
0000
0010
0000
0100
0000
1000
0000
0100
0010
0001
0000
1000
,  // measure 13
2002
0000
3003
0000
;

//---------------dance-single - ----------------
#NOTES:
     dance-single:
     :
     Medium:
     9:
     0.215137,0.247809,0.104892,0.127369,0.397093,201.000000,187.000000,14.000000,17.000000,0.000000,0.000000,0.215137,0.247809,0.104892,0.127369,0.397093,201.000000,187.000000,14.000000,17.000000,0.000000,0.000000:
0000
0000
0000
0000
,
1001
0000
1000
0000
0100
1000
0010
0000
0100
0000
0010
0000
1000
0010
0001
0000
0010
0000
0100
0000
0001
0100
0010
0000
1000
0000
0001
0000
1000
0100
0001
0100
,
1000
0000
0010
0000
1000
0010
0100
0000
0001
0000
1000
0000
0001
0100
1000
0000
0100
0000
0010
0000
1000
0010
0100
0000
0010
0000
1000
0000
0001
0010
1000
0010
,
0011
0000
0000
0000
0101
0000
0100
0100
0100
0000
0000
0000
0110
0000
0010
0010
0010
0000
0000
0000
1001
0000
1000
1000
1000
0000
0000
0000
1001
0000
0110
0000
,
0001
0100
0010
0000
1000
0000
0000
0000
0000
0000
0000
0000
0000
0000
0100
0010
0001
0000
0000
0000
0000
0000
0000
0000
0000
0000
0000
0000
0000
0000
0010
0001
0100
0000
0000
0000
0000
0000
0000
0000
0000
0000
0000
0000
0000
0000
0010
1000
0100
0000
0000
0000
0000
0000
0000
0000
0000
0000
0000
0000
0010
0000
0100
0000
,
1100
0000
0000
0000
1001
0000
1000
1000
0001
0000
0000
0000
0110
0000
0010
0010
0100
0000
0000
0000
0101
0000
1000
1000
0100
0000
0000
0010
0011
0000
1100
0000
,
0001
0100
0010
0000
1000
0000
0000
0000
0000
0000
0000
0000
0000
0000
0010
1000
0100
0000
0000
0000
0000
0000
0000
0000
0000
0000
0000
0000
0000
0000
0010
0001
1000
0000
0000
0000
0000
0000
0000
0000
0000
0000
0000
0000
0000
0000
0001
1000
0100
0000
0000
0000
0000
0000
0000
0000
0000
0000
0000
0000
0010
0000
0100
0000
,
2100
0100
0010
0001
3002
0100
0023
0230
,
2300
0010
3002
0203
0302
0010
2003
0010
,
3002
0000
0100
0000
1000
1000
1000
0000
0023
0000
0100
0000
0032
0000
0203
0000
,
0320
0000
1000
0000
0100
0100
0100
0000
2030
0000
0001
0000
3200
0000
0010
0010
,
0310
0000
0000
0010
0000
0100
0000
1000
0000
0010
0000
0000
0100
0000
0000
0000
0010
0000
0000
0000
0000
1000
0000
0001
0000
0010
0000
0000
0100
0000
0000
0000
1000
0000
0000
0001
0000
0010
0000
0001
0000
0100
0000
0000
0010
0000
0000
0000
0100
0000
0000
0001
0000
0100
0000
0010
0000
1000
0000
0000
0100
0000
0000
0000
,
0010
0000
0000
0100
0000
1000
0000
0001
0000
0010
0000
0000
0100
0000
0000
0000
0010
0000
0000
0001
0000
0010
0000
0100
0000
0010
0000
0000
0100
0000
0000
0000
1000
0000
0000
0010
0000
0100
0000
0001
0000
1000
0000
0000
0100
0000
0000
0000
0010
0000
0000
0100
0000
1000
0000
0001
0000
0010
0000
0000
0100
0000
0000
0010
,
0002
0000
0003
0000
;

//---------------dance-single - ----------------
#NOTES:
     dance-single:
     :
     Easy:
     6:
     0.135932,0.170450,0.044954,0.134862,0.198546,127.000000,121.000000,6.000000,18.000000,0.000000,0.000000,0.135932,0.170450,0.044954,0.134862,0.198546,127.000000,121.000000,6.000000,18.000000,0.000000,0.000000:
0000
0000
0000
0000
,
1001
0000
0000
0000
0010
0000
0000
0000
1000
0000
0000
0001
0010
0000
0000
0000
0100
0000
0000
0000
0010
0000
0000
0000
0100
0000
0000
1000
0010
0000
0100
0001
,
1000
0000
0000
0000
0001
0000
0000
0000
0010
0000
0000
0100
0010
0000
0000
0000
0100
0000
0000
0000
1000
0000
0000
0000
0010
0000
0000
0100
0001
0000
0000
0000
,
1001
0000
0000
0000
0001
0000
1000
0100
1000
0000
0000
0000
0010
0000
0100
0001
0000
0000
0000
0000
0010
0000
0100
1000
0000
0000
0000
0100
0010
0000
0001
0000
,
1000
0100
0010
0000
0000
0000
0000
0001
0100
0000
0000
0000
0000
0000
0000
0010
1000
0000
0000
0000
0000
0000
0000
0001
0100
0000
0000
0000
0000
0000
0010
1000
,
0100
0000
0000
0000
0010
0000
0100
1000
0100
0000
0000
0000
0010
0000
0001
0100
0000
0000
0000
0000
0010
0000
0100
0001
0000
0000
0000
0100
0010
0000
1000
0000
,
0001
1000
0100
0000
0000
0000
0000
0010
0100
0000
0000
0000
0000
0000
0000
1000
0010
0000
0000
0000
0000
0000
0000
0100
0001
0000
0000
0000
0000
0000
0000
0000
,
2001
0000
0000
0000
3020
0000
0230
0302
,
0203
0000
0000
0000
0320
0000
2030
0000
0002
0000
0000
3000
0200
0000
0000
0303
,
1020
0000
0000
0000
0230
0000
0302
0023
,
0032
0000
0000
0000
2003
0000
3020
0000
0230
0000
0000
0000
0002
0000
0000
0303
,
1010
0010
1000
0100
1000
0001
0100
0001
0010
0100
0010
0001
1000
0100
1000
0010
,
0100
0010
1000
0001
0010
0001
1000
0100
1000
0010
0100
0001
0010
0100
1000
0010
,
1001
0000
0000
0000
;

//---------------dance-single - ----------------
#NOTES:
     dance-single:
     :
     Beginner:
     2:
     0.069572,0.077920,0.059939,0.000000,0.000000,65.000000,57.000000,8.000000,0.000000,0.000000,0.000000,0.069572,0.077920,0.059939,0.000000,0.000000,65.000000,57.000000,8.000000,0.000000,0.000000,0.000000:
0000
0000
0000
0000
,
1001
1000
0010
0100
,
0001
0010
0100
0010
,
1001
1000
0001
1000
0010
1000
0100
1000
,
0110
1000
0010
0100
,
1001
0001
0010
0001
0100
0010
1000
0100
,
0110
1000
0001
0100
,
1001
0000
0000
0000
0010
0000
0001
1000
,
0010
0000
1000
0100
0010
0000
0100
0000
,
1001
0000
0000
0000
0100
0000
1000
0001
,
0010
0000
0100
1000
,
1001
0010
1000
0100
,
0010
0001
1000
0010
,
0100
0000
0000
0000
;
