#TITLE:0/1 ANGEL;
#SUBTITLE:;
#ARTIST:V.C.O. featuring Alt;
#TITLETRANSLIT:;
#SUBTITLETRANSLIT:;
#ARTISTTRANSLIT:;
#GENRE:;
#CREDIT:;
#BANNER:01 ANGEL.png;
#BACKGROUND:01 ANGEL-bg.png;
#LYRICSPATH:;
#CDTITLE:;
#MUSIC:01 ANGEL.ogg;
#OFFSET:-0.268000;
#SAMPLESTART:53.196571;
#SAMPLELENGTH:20.571434;
#SELECTABLE:YES;
#BPMS:0.000000=140.000000
;
#STOPS:17.000000=0.643000
;
#BGCHANGES:;
#KEYSOUNDS:;
#ATTACKS:;

//---------------dance-single - ----------------
#NOTES:
     dance-single:
     :
     Hard:
     10:
     0.358615,0.399034,0.000000,0.073217,0.010460,240.000000,240.000000,0.000000,7.000000,0.000000,0.000000,0.358615,0.399034,0.000000,0.073217,0.010460,240.000000,240.000000,0.000000,7.000000,0.000000,0.000000:
0000
0000
0000
0000
,
0000
0000
0000
0000
,
0000
0000
0000
0000
,
1000
0001
1000
0100
0000
0000
1000
0001
,
1000
0010
0000
0000
1000
0000
0000
0001
,
0000
0010
0001
0010
0100
0000
0000
0010
,
0000
0100
1000
0100
1000
0000
0000
0001
,
0000
1000
0010
1000
0100
0000
0010
0001
,
0000
0000
0010
0100
0010
0000
0000
0100
,
0000
1000
0001
0100
0001
0000
0000
1000
,
0000
0001
0010
0100
0010
0000
0000
0100
,
0000
0010
0001
1000
0001
0000
1000
0010
,
0000
0100
0010
1000
0001
1000
0100
1000
,
0001
0000
0000
1000
0001
0010
0100
0000
,
0000
0000
0000
0000
0000
0010
0001
1000
,
0100
1000
0010
0100
0001
1000
0010
0000
,
0000
0000
0000
0000
0100
0001
1000
0100
,
0010
0000
0000
0100
1000
0001
0100
0000
,
0000
0000
0000
0000
0000
0010
0100
0001
,
1000
0100
0010
0001
0010
0100
1000
0000
,
0000
0000
0001
0100
,
0001
0000
1000
0000
0100
1000
0000
0010
,
0000
0100
0010
2000
0000
0000
0001
0000
,
0001
0010
0010
0100
,
0100
3001
0100
0001
,
0010
0000
0001
0000
1000
0100
0000
1000
,
0000
0010
0100
0002
0000
0000
1000
0000
,
1000
1000
0100
0100
,
0103
0020
0000
2030
0000
0000
0100
0000
,
0100
0000
0000
0000
3100
0000
0020
0000
0000
0000
0000
0000
0030
0000
0100
1000
,
0000
0100
1000
0000
0100
0000
1000
0000
0001
0000
0000
0000
1000
0000
0100
0000
,
0010
0000
0100
1000
0000
0010
0100
0000
,
0001
0000
0010
0001
0010
0000
0100
0000
,
1000
0000
0100
1000
0010
0000
0100
0000
,
0001
0000
1000
0000
0001
0000
1000
0010
,
1000
0000
0010
0100
0000
0001
0010
0000
,
0100
0000
0010
0001
1000
0000
0010
0000
,
0100
0000
0010
1000
0010
0000
1000
0000
,
0001
0000
0010
0000
0100
0000
0010
0001
,
1000
0000
0010
0100
0000
0001
1000
0000
,
0100
0000
0010
0100
1000
0000
0100
0000
,
1000
0000
0001
0100
0001
0000
0010
0000
,
0100
0000
1000
0000
0001
0000
0000
1000
,
0000
0200
0000
0000
,
0000
0000
0300
0000
1000
0000
0000
0001
,
0000
0020
0000
0000
,
0030
0000
0100
0010
0001
0010
0100
0010
,
0001
0000
0000
0010
0100
1000
0010
0000
,
0000
0000
0000
0000
0000
0100
0010
1000
,
0001
0010
0100
0010
0001
1000
0100
0000
,
0000
0000
0000
0000
1000
0100
0010
0100
,
1000
0000
0000
0100
0010
0001
1000
0000
,
0000
0000
0000
0000
0001
0100
0001
1000
,
0100
0010
0100
1000
0010
0100
0001
0000
,
0000
0000
0010
0000
;

//---------------dance-double - ----------------
#NOTES:
     dance-double:
     :
     Hard:
     10:
     0.361603,0.456038,0.083677,0.251030,0.010460,242.000000,234.000000,8.000000,24.000000,0.000000,0.000000,0.361603,0.456038,0.083677,0.251030,0.010460,242.000000,234.000000,8.000000,24.000000,0.000000,0.000000:
00000000
00000000
00000000
00000000
,
00000000
00000000
00000000
00000000
,
00000000
00000000
00000000
00000000
,
00000000
00000000
00000000
00000000
,
00000000
00000000
00000000
00000000
10000000
00000000
00000000
01000000
,
00000000
00100000
01000000
00100000
00010000
00000000
00000000
00100000
,
00000000
00001000
00010000
00000100
00001000
00000000
00000000
00000010
,
00000000
00000100
00000001
00001000
00000100
00000000
00001000
00000100
,
00000000
00000000
00001000
00000100
00010000
00000000
00000000
00001000
,
00000000
01000000
00100000
10000000
01000000
00000000
00000000
10000000
,
00000000
01000000
00100000
00010000
00100000
00000000
00000000
00001000
,
00000000
00010000
00000100
00001000
00000010
00000000
00000100
00000001
,
00000000
00000010
00000001
00000100
00000000
00000001
00000100
00001000
,
00000100
00000000
00000000
00000010
00010000
00001000
00011000
00000000
,
00000000
00000000
00000000
00000000
00000000
00001000
01000000
10000000
,
01000000
00100000
10000000
00010000
00100000
01000000
11000000
00000000
,
00000000
00000000
00000000
00000000
00000000
10000000
01000000
00100000
,
01000000
00000000
00000000
00100000
00010000
01000000
00001000
00000000
,
00000000
00000000
00000000
00000000
00000000
00100000
00001000
00010000
,
00000010
00000001
00000010
00001000
00000100
00000010
00000001
00000000
,
00000000
00000000
00000200
00000310
,
00002000
00000000
00003100
00000000
00000100
00010000
00000000
00001000
,
00000000
00010000
00100000
02000000
00000000
00000000
10000000
00000000
,
10000000
13000000
00100000
01000000
,
10000000
00010000
02000000
03010000
,
00200000
00000000
00301000
00000000
00010000
00000100
00000000
00001000
,
00000000
00000010
00000100
00000001
00000010
00000000
00000100
00000000
,
00001000
00000100
00010000
00001000
,
01000000
00200000
00000000
10300000
01000000
00000000
00100000
00000000
,
00010000
00000000
00000000
00000000
01000000
00000000
00020000
00000000
00000000
00000000
00000000
00000000
00000000
00000000
00130000
00001000
,
00000000
00100000
00001000
00000000
00010000
00000000
00000100
00000000
00002000
00000000
00000000
00000000
00003010
00000000
00001000
00000000
,
00000001
00000000
00000010
00000100
00000000
00000100
00001000
00000000
,
00001100
00000000
00000100
00010000
00001000
00000000
01000000
00000000
,
00100000
00000000
10000000
01000000
00100000
00010000
10000000
00010000
,
01010000
00000000
11000000
00000000
00110000
00000000
10000000
00010000
,
00100000
00000000
00100000
00001000
00000000
00100000
00010000
00000000
,
00110000
00000000
00100000
00001000
00020000
00000000
00030100
00000000
,
00002000
00003100
00002000
00003020
,
00000230
00000000
00000301
00000000
00001000
00000000
00000001
00000100
,
00000010
00000000
00001000
00000100
00000000
00000100
00010000
00000000
,
00011000
00000000
00001000
01000000
00200000
00000000
10300000
00000000
,
02000000
00000000
03100000
00010000
02000000
00000000
03002000
00000000
,
00023000
00000000
00030010
00000000
00020000
00000000
00000000
00032000
,
00000000
00003020
00000000
00000000
,
00000030
00000000
00000000
00000000
00000200
00000000
00000000
00020300
,
00000000
00002000
00000000
00000000
,
00033000
00000000
00010000
00001000
01000000
10000000
01000000
00010000
,
10000000
00000000
00000000
01000000
00100000
00010000
00100000
00000000
,
00000000
00000000
00000000
00000000
00010000
00100000
00001000
00010000
,
00000100
00000001
00000100
00001000
00000010
00000100
00000001
00000000
,
00000000
00000000
00000000
00000000
00000100
00000010
00001000
00000100
,
00010000
00000000
00000000
00001000
01000000
10000000
01000000
00000000
,
00000000
00000000
00000000
00000000
00100000
10000000
00010000
01000000
,
00010000
00100000
00001000
00010000
00000100
00000010
00000001
00000000
,
00000000
00000000
00001000
00000000
;

//---------------dance-single - ----------------
#NOTES:
     dance-single:
     :
     Medium:
     7:
     0.267467,0.314965,0.115056,0.073217,0.000000,179.000000,168.000000,11.000000,7.000000,0.000000,0.000000,0.267467,0.314965,0.115056,0.073217,0.000000,179.000000,168.000000,11.000000,7.000000,0.000000,0.000000:
0000
0000
0000
0000
,
0000
0000
0000
0000
,
0000
0000
0000
0000
,
1000
0001
1000
0010
0000
0000
0010
1000
,
0100
0010
0000
0000
0100
0000
0000
1000
,
0000
0001
0100
0000
0001
0000
0000
0010
,
0000
0100
0010
0000
0001
0000
0000
1000
,
0000
0001
0100
0000
0001
0000
1000
0100
,
0000
0000
0010
0100
1000
0000
0000
0100
,
0000
1000
0100
0000
0010
0000
0000
0100
,
0000
1000
0010
0000
0100
0000
0000
0010
,
0000
0100
0001
0000
0010
0000
0001
1000
,
0000
0001
0100
0000
0001
0000
1000
0000
,
1010
0000
1000
0011
,
0000
0000
1000
0100
,
0010
0000
0001
0000
0010
0001
0100
0000
,
0000
0000
0010
0110
,
0101
0000
0011
1001
,
0000
0000
1000
0001
,
0010
0000
1000
0000
0010
0001
0100
0000
,
0000
0000
0010
1000
,
0010
0000
0001
0000
0010
0100
0000
0010
,
0000
0100
0010
2000
0000
0000
0000
0000
,
0000
0000
3000
0000
,
0000
0000
0010
1000
,
0100
0000
0001
0000
0100
1000
0000
0100
,
0000
0010
0001
0200
0000
0000
0000
0000
,
0000
0000
0000
0000
,
0300
0010
0000
2000
0000
0000
0000
0000
,
0000
0000
0000
0002
0000
0000
0000
3000
,
0000
0003
0000
0000
0000
0000
0000
0000
1001
0000
0000
0000
0001
0000
0010
0000
,
0100
0000
0010
0001
0000
0001
0100
0000
,
0010
0000
0010
0000
,
1000
0000
0001
0000
,
0010
0000
0001
0000
1000
0000
0001
1000
,
0001
0000
0010
0001
0000
1000
0010
0000
,
0100
0010
1000
0000
,
0001
0000
1000
0100
,
0010
0000
0001
0000
0010
0000
0001
0100
,
0010
0000
0100
0001
0000
0010
0100
0000
,
1000
0100
1000
0000
,
0010
0000
1000
0100
,
0010
0000
0001
0000
1000
0000
0000
0001
,
0000
0200
0000
0000
,
0300
0000
0000
0000
0001
0000
0000
1000
,
0000
0020
0000
0000
,
0030
0000
0100
0010
1000
0000
0001
0000
,
0011
0000
0001
1010
,
0000
0000
1000
0001
,
0010
0000
0100
0000
0010
0001
0100
0000
,
0000
0000
0010
1000
,
1100
0000
0010
1001
,
0000
0000
0001
1000
,
0100
0000
0010
0000
0100
1000
0010
0000
,
0000
0000
0200
0300
;

//---------------dance-single - ----------------
#NOTES:
     dance-single:
     :
     Easy:
     4:
     0.161377,0.199517,0.000000,0.052298,0.000000,108.000000,108.000000,0.000000,5.000000,0.000000,0.000000,0.161377,0.199517,0.000000,0.052298,0.000000,108.000000,108.000000,0.000000,5.000000,0.000000,0.000000:
0000
0000
0000
0000
,
0000
0000
0000
0000
,
0000
0000
0000
0000
,
0000
0000
0000
0000
,
0000
0000
1000
0000
,
0001
0000
0010
0000
,
0001
0000
0100
0000
,
0001
0000
1000
0000
,
0001
0000
0010
0000
,
0001
0000
1000
0000
,
0100
0000
1000
0000
,
0010
0000
1000
0000
,
0001
0000
0000
1000
,
0010
0000
1000
0001
,
0000
0000
0010
0001
,
0100
0001
1000
0001
,
0000
0000
0000
0001
,
0100
0000
0001
1000
,
0000
0000
0001
0010
,
0100
1000
0100
1000
,
0000
0000
0100
0000
,
1000
0000
0010
0000
,
0100
0000
0002
0000
,
0000
0000
0003
0000
,
0000
0000
0010
0000
,
0100
0000
0010
0000
,
0001
0000
2000
0000
,
0000
0000
0000
0000
,
3000
0000
0002
0000
,
0000
0000
0003
0000
,
0000
0000
0100
0000
,
0010
0000
1000
1000
,
1000
0000
0010
0000
,
1000
0000
0100
0000
,
0010
0100
1000
0000
,
0001
0000
0010
0010
,
0001
0000
1000
0000
,
0010
0000
1000
0010
,
0100
0001
1000
0000
,
0001
0000
0010
0001
,
1000
0000
0100
0000
,
1000
0000
0010
0100
,
0010
0000
1000
0000
0001
0000
0000
0001
,
0000
0002
0000
0000
,
0003
0000
0000
0000
1000
0000
0000
1000
,
0000
2000
0000
0000
,
3000
0000
0010
1000
,
0100
0000
0010
0100
,
0000
0000
0010
0001
,
0100
0001
1000
0100
,
0000
0000
0010
0001
,
0100
0000
0001
1000
,
0000
0000
0001
0010
,
0001
1000
0100
0010
,
0000
0000
0100
0000
;

//---------------dance-single - ----------------
#NOTES:
     dance-single:
     :
     Beginner:
     2:
     0.088159,0.142512,0.031379,0.020919,0.000000,59.000000,56.000000,3.000000,2.000000,0.000000,0.000000,0.088159,0.142512,0.031379,0.020919,0.000000,59.000000,56.000000,3.000000,2.000000,0.000000,0.000000:
// measure 0
0000
0000
0000
0000
,  // measure 1
0000
0000
0000
0000
,  // measure 2
0000
0000
0000
0000
,  // measure 3
0000
0000
0000
0000
,  // measure 4
0000
0000
1000
0000
,  // measure 5
0000
0000
0001
0000
,  // measure 6
0000
0000
0010
0000
,  // measure 7
0000
0000
0001
0000
,  // measure 8
0000
0000
0100
0000
,  // measure 9
0000
0000
0010
0000
,  // measure 10
0000
0000
0100
0000
,  // measure 11
0000
0000
0001
0000
,  // measure 12
0000
0000
1000
0000
,  // measure 13
0000
0000
0100
0000
,  // measure 14
0000
0000
1000
0000
,  // measure 15
0001
0000
1000
0000
,  // measure 16
0000
0000
0100
0000
,  // measure 17
0000
0000
0010
0000
,  // measure 18
0000
0000
0100
0000
,  // measure 19
1000
0000
0010
0000
,  // measure 20
0000
0000
0100
0000
,  // measure 21
0000
0000
0001
0000
,  // measure 22
0000
0000
0010
0000
,  // measure 23
0000
0000
0000
0000
,  // measure 24
0000
0000
0100
0000
,  // measure 25
0000
0000
1000
0000
,  // measure 26
0000
0000
0001
0000
,  // measure 27
0000
0000
0000
0000
,  // measure 28
0000
1000
0000
0000
,  // measure 29
0000
0000
0010
0000
,  // measure 30
0100
0000
1001
0000
,  // measure 31
0000
0000
0001
0000
,  // measure 32
0000
0000
0010
0000
,  // measure 33
0001
0000
1000
0000
,  // measure 34
0000
0000
1001
0000
,  // measure 35
0000
0000
0010
0000
,  // measure 36
0000
0000
1000
0000
,  // measure 37
0001
0000
1000
0000
,  // measure 38
0000
0000
0110
0000
,  // measure 39
0000
0000
0100
0000
,  // measure 40
0000
0000
0001
0000
,  // measure 41
1000
0000
0001
0000
,  // measure 42
0010
0000
0200
0000
,  // measure 43
0000
0000
0000
0000
,  // measure 44
0300
0000
0020
0000
,  // measure 45
0000
0000
0000
0000
,  // measure 46
0030
0000
0001
0000
,  // measure 47
0000
0000
1000
0000
,  // measure 48
0000
0000
0010
0000
,  // measure 49
1000
0000
0100
0000
,  // measure 50
0000
0000
0010
0000
,  // measure 51
0000
0000
0001
0000
,  // measure 52
0000
0000
0100
0000
,  // measure 53
0010
0000
1000
0000
,  // measure 54
0000
0000
0001
0000
;
