#TITLE:rottel-the-Mercury (Alternative);
#SUBTITLE:;
#ARTIST:sampling masters MEGA;
#TITLETRANSLIT:;
#SUBTITLETRANSLIT:;
#ARTISTTRANSLIT:;
#GENRE:;
#CREDIT:;
#BANNER:rottel-the-Mercury.png;
#BACKGROUND:rottel-the-Mercury-bg.png;
#LYRICSPATH:;
#CDTITLE:cdtitle.png;
#MUSIC:rottel-the-Mercury.mp3;
#OFFSET:0.807000;
#SAMPLESTART:0.340000;
#SAMPLELENGTH:12.000000;
#SELECTABLE:YES;
#DISPLAYBPM:200.000000;
#BPMS:0.000000=200.000000
;
#STOPS:16.000000=0.600000,
46.500000=0.150000,
47.000000=0.150000,
81.000000=0.300000,
82.000000=0.300000,
83.000000=0.300000,
86.000000=0.300000,
87.000000=0.300000,
88.000000=0.300000,
119.000000=0.900000,
181.000000=0.150000,
182.000000=0.150000,
243.500000=0.900000
;
#BGCHANGES:;
#KEYSOUNDS:;
#ATTACKS:;

//---------------dance-single - ----------------
#NOTES:
     dance-single:
     :
     Challenge:
     15:
     0.776796,1.015268,1.116323,0.000000,0.018005,604.000000,480.000000,124.000000,0.000000,0.000000,0.000000,0.776796,1.015268,1.116323,0.000000,0.018005,604.000000,480.000000,124.000000,0.000000,0.000000,0.000000:
// measure 0
0000
0000
0000
0000
,  // measure 1
0000
0000
0000
0000
,  // measure 2
0000
0000
0000
0000
,  // measure 3
0000
0000
0000
0000
,  // measure 4
0000
0000
0000
0000
1010
0000
0100
0100
,  // measure 5
0000
0001
0001
0010
0100
0000
1000
1000
,  // measure 6
0000
0100
1000
1000
0001
0000
0100
0100
,  // measure 7
0000
0010
1000
1000
1001
0000
0101
0000
,  // measure 8
0011
0000
1100
0000
1001
0000
0001
0001
,  // measure 9
0100
0100
0010
0010
1000
0000
0001
0001
,  // measure 10
0000
1000
0001
0001
0010
0000
0100
0010
,  // measure 11
0001
0001
1000
1000
0000
1000
0001
0010
,  // measure 12
0100
0000
1100
0000
0000
0011
0000
0000
,  // measure 13
0101
0000
0001
0100
0000
1000
0100
0001
,  // measure 14
0000
1000
0000
1100
0000
0000
1001
0000
,  // measure 15
0000
0010
1000
0010
0000
1000
0010
0001
,  // measure 16
0000
0010
1010
0000
0000
0101
0000
0000
,  // measure 17
0011
0000
0001
0010
0000
0100
0010
0001
,  // measure 18
0000
1000
1001
0000
1000
0000
0010
0000
,  // measure 19
0000
1000
0000
1000
0000
1000
0010
0000
,  // measure 20
0000
0101
0010
1100
,  // measure 21
0010
0001
1001
1000
,  // measure 22
0011
0010
0100
1100
,  // measure 23
0100
0110
0010
0011
,  // measure 24
0011
0000
0101
0000
0101
0000
1001
0001
,  // measure 25
0100
0010
1001
1000
0100
0010
1001
0001
,  // measure 26
0010
0100
1001
1000
0100
0010
0001
0100
,  // measure 27
0000
1000
0100
0001
0000
0001
0100
0010
,  // measure 28
0000
1010
0000
1000
0001
0001
0010
0100
,  // measure 29
0000
0010
0001
1000
0000
0010
1001
0000
,  // measure 30
1000
0001
0010
0100
0010
0001
1000
0010
,  // measure 31
1000
0001
0100
0001
0010
0001
1000
0100
,  // measure 32
1000
0010
0100
0001
0010
0100
0010
0001
,  // measure 33
1000
0100
0010
0001
1000
0100
0010
0001
,  // measure 34
1000
0001
0010
0100
0010
0001
0100
0010
,  // measure 35
1000
0100
0010
0001
0100
0010
1000
0001
,  // measure 36
0011
0000
1100
0000
,  // measure 37
1001
0001
0000
0001
0000
0001
1000
0010
,  // measure 38
0000
0100
0000
0000
0100
0000
0100
0100
,  // measure 39
0000
0100
0000
0000
0100
0000
0100
0100
,  // measure 40
0000
0010
0000
0000
0010
0000
0010
0010
,  // measure 41
0000
0010
0010
0000
0010
0010
0010
0010
,  // measure 42
0100
0100
0000
0000
0100
0000
0100
0100
,  // measure 43
0000
0100
0000
0000
0100
0000
0100
0100
,  // measure 44
0000
0010
0000
0000
0010
0000
0000
0010
,  // measure 45
0110
0110
0000
0110
0110
0000
1001
1000
,  // measure 46
1001
0001
1001
1000
0001
1001
0001
1000
,  // measure 47
1001
0001
1001
0010
1001
0000
1001
0001
,  // measure 48
1001
1000
1001
0001
1000
1001
1000
0001
,  // measure 49
1001
1000
0000
1001
1001
0000
0101
0100
,  // measure 50
0110
0010
1010
1000
0100
0110
0010
0001
,  // measure 51
0011
0010
0110
0010
0011
0000
1000
1000
,  // measure 52
1000
1000
1000
1000
1000
1000
1001
0000
,  // measure 53
0000
0000
0000
0000
0000
0000
0010
0000
1001
0000
0000
0000
0011
0000
0000
0010
,  // measure 54
0000
0010
0100
0000
1000
0000
0100
1000
,  // measure 55
0010
0000
1000
0000
0001
0000
0010
0000
0100
0000
1000
0000
1010
0000
0000
0010
,  // measure 56
0000
0010
1000
0000
0001
0000
0010
0001
,  // measure 57
1000
0000
0010
0000
1000
0000
0001
0000
0010
0000
0100
0000
1100
0000
0000
1000
,  // measure 58
0000
1000
0100
0000
1000
0000
0010
1000
,  // measure 59
0001
0000
0010
0000
0100
0000
0010
0000
0001
0000
1000
0000
1001
0000
0000
0001
,  // measure 60
0000
0001
0010
0000
0100
0000
0010
0001
,  // measure 61
0001
0100
1000
0100
0001
0000
1010
0000
,  // measure 62
1000
0100
0001
0100
1000
0000
0011
0000
,  // measure 63
0001
0100
1000
0100
0001
0000
1010
0000
,  // measure 64
1001
0110
0000
0000
,  // measure 65
1000
0010
0001
0010
1000
0000
0101
0000
,  // measure 66
0001
0010
1000
0010
0001
0000
1100
0000
,  // measure 67
1000
0010
0001
1000
0010
0000
0101
0000
,  // measure 68
1001
0110
0000
0000
,  // measure 69
1000
0001
0011
0000
1000
0010
0110
0000
,  // measure 70
0100
0001
0110
1100
,  // measure 71
1000
0001
0101
0000
0001
1000
1100
0000
,  // measure 72
1000
0001
0011
1100
,  // measure 73
1000
0010
1010
0000
0001
0100
0101
0000
,  // measure 74
0001
0010
0011
0000
1000
0100
1100
0000
,  // measure 75
0001
0001
0001
0001
0100
0100
0100
0100
,  // measure 76
0010
0010
0010
0010
0010
0000
0000
0000
,  // measure 77
1010
0010
0110
0100
0101
0001
0010
0011
,  // measure 78
0100
1000
1100
1000
1100
0100
1001
0000
,  // measure 79
0101
0100
0110
0010
1010
1000
0100
1100
,  // measure 80
0010
0001
0011
0001
0000
1100
1001
0000
,  // measure 81
0101
0100
0110
0010
1010
1000
0001
1001
,  // measure 82
0001
0010
0110
0100
1100
1100
1001
0000
,  // measure 83
1001
1001
0001
0001
1010
1010
1000
1000
,  // measure 84
0110
0110
0010
0010
0110
0110
0100
0100
,  // measure 85
0110
0110
0010
0010
1010
1010
1000
1000
,  // measure 86
1001
0000
0000
0000
0000
0110
1001
0000
;
