#VERSION:0.83;
#TITLE:bloomin' feeling (Alternative);
#SUBTITLE:;
#ARTIST:Ryu☆;
#TITLETRANSLIT:;
#SUBTITLETRANSLIT:;
#ARTISTTRANSLIT:;
#GENRE:;
#ORIGIN:;
#CREDIT:;
#BANNER:bloomin' feeling.png;
#BACKGROUND:bloomin' feeling-bg.png;
#PREVIEWVID:;
#JACKET:bloomin' feeling-jacket.png;
#CDIMAGE:;
#DISCIMAGE:;
#LYRICSPATH:;
#CDTITLE:cdtitle.png;
#MUSIC:bloomin' feeling.ogg;
#OFFSET:-0.421000;
#SAMPLESTART:12.354702;
#SAMPLELENGTH:10.607735;
#SELECTABLE:YES;
#BPMS:0.000=181.000;
#STOPS:;
#DELAYS:;
#WARPS:;
#TIMESIGNATURES:0.000=4=4;
#TICKCOUNTS:0.000=4;
#COMBOS:0.000=1;
#SPEEDS:0.000=1.000=0.000=0;
#SCROLLS:0.000=1.000;
#FAKES:;
#LABELS:0.000=Song Start;
#BGCHANGES:;
#KEYSOUNDS:;
#ATTACKS:
;

//---------------dance-single - ----------------
#NOTEDATA:;
#CHARTNAME:;
#STEPSTYPE:dance-single;
#DESCRIPTION:;
#CHARTSTYLE:;
#DIFFICULTY:Challenge;
#METER:14;
#RADARVALUES:0.719506,1.002370,0.701165,0.562907,0.306143,510.000000,439.000000,71.000000,57.000000,0.000000,0.000000,0.000000,0.000000,0.000000,0.719506,1.002370,0.701165,0.562907,0.306143,510.000000,439.000000,71.000000,57.000000,0.000000,0.000000,0.000000,0.000000,0.000000;
#CREDIT:Pandemonium X;
#OFFSET:-0.421000;
#BPMS:0.000000=181.000000
,164.000000=90.500000
,180.000000=181.000000
;
#STOPS:;
#DELAYS:;
#WARPS:;
#TIMESIGNATURES:0.000000=4=4
;
#TICKCOUNTS:0.000000=4
;
#COMBOS:0.000000=1
;
#SPEEDS:0.000000=1.000000=0.000000=0
;
#SCROLLS:0.000000=1.000000
;
#FAKES:;
#LABELS:0.000000=Song Start
;
#NOTES:
// measure 0
0000
0000
0000
0000
,  // measure 1
0000
0000
0000
0000
,  // measure 2
0000
0000
0000
0000
,  // measure 3
0000
0000
0000
0000
,  // measure 4
0000
0000
0000
0000
,  // measure 5
0001
0000
0000
0000
1000
0010
0100
0000
0000
0000
0010
0000
0100
0000
0000
0000
,  // measure 6
0010
0000
2000
0000
0000
0000
3001
0000
0020
0000
0000
0000
0130
0010
0001
0000
,  // measure 7
1000
0000
0001
0000
0100
0000
0010
0000
1000
0001
1000
0001
1000
0001
1000
0001
,  // measure 8
1000
0010
0001
0010
2000
0100
3100
0000
,  // measure 9
1100
0000
0011
0000
0001
0010
0100
0010
,  // measure 10
0011
0101
2020
3030
,  // measure 11
1001
0000
1001
0000
0001
1000
0010
1000
,  // measure 12
0100
0001
0100
0010
0022
0000
0033
0000
,  // measure 13
1100
0000
1100
0000
0100
1000
0010
0100
,  // measure 14
0001
0001
1001
0000
0202
0000
0303
0000
,  // measure 15
1010
0000
1010
0000
1000
0010
0100
0001
,  // measure 16
0010
1000
0010
0100
0020
0001
0031
0000
,  // measure 17
1001
0000
1001
0000
0001
0100
0010
1000
,  // measure 18
1200
0300
0201
0300
2200
0000
3300
0000
,  // measure 19
1010
0000
1010
0000
1000
0010
0100
0001
,  // measure 20
0010
1000
0010
0100
0220
0000
0330
0000
,  // measure 21
1100
0000
1100
0000
0100
1000
0010
0100
,  // measure 22
0001
0001
0012
0003
0202
0000
0303
0000
,  // measure 23
0001
0000
0001
0000
0001
0100
1000
0100
,  // measure 24
0010
1000
0001
0010
0200
0000
0300
0000
,  // measure 25
0010
0000
0100
0010
0001
1000
0002
0000
0000
0000
0003
0000
0000
0000
0000
0000
,  // measure 26
1020
0000
0000
0000
0130
0000
0002
0000
0000
0000
0000
0000
0013
0001
0010
0000
,  // measure 27
0100
0000
0010
0001
2000
0000
0000
0000
3001
0000
0100
0000
0010
0000
0000
0000
,  // measure 28
2000
0000
0000
0000
3100
0000
0020
0000
0000
0000
0130
0000
1000
0001
0100
0000
,  // measure 29
0020
0000
0000
0000
0130
0001
1000
0000
0000
0000
0001
0000
0010
0000
0000
0000
,  // measure 30
0200
0000
0000
0000
0310
0000
0002
0000
0000
0000
0103
0000
0010
1000
0001
1000
,  // measure 31
0001
0000
1000
0100
0001
0000
0100
0000
0010
0000
0001
0000
0100
0000
0000
0000
,  // measure 32
0120
0000
0000
0000
0000
0130
1001
0000
,  // measure 33
0001
0100
0001
0000
0001
0100
0001
0000
0001
0100
0001
0000
0001
0100
0001
0000
,  // measure 34
1000
0010
1000
0000
1000
0010
1000
0000
1000
0010
1000
0000
1000
0010
1000
0000
,  // measure 35
0001
1000
0001
0000
0001
1000
0001
0000
0001
1000
0001
0000
0001
1000
0001
0000
,  // measure 36
1000
0100
1000
0000
1000
0100
1000
0000
1000
0100
1000
0000
1000
0100
1000
0000
,  // measure 37
0000
0100
0000
1000
0000
0010
0000
0001
,  // measure 38
0000
0010
0000
0100
0000
0010
0000
1000
,  // measure 39
0001
0000
0001
0000
1000
0000
1000
0000
0001
0100
0010
1000
0001
0100
0010
2000
,  // measure 40
0002
0000
0000
0000
3003
0100
1001
0000
,  // measure 41
1010
0000
1010
0000
0001
0100
1000
0001
0020
0000
2000
0030
0200
0000
3300
0000
,  // measure 42
1010
0000
1010
0000
1000
0100
0001
0100
0010
0100
0001
1000
0200
0000
0300
0000
,  // measure 43
1100
0000
1100
0000
1000
0100
0010
0001
1000
1000
0200
0000
0020
0000
0330
0000
,  // measure 44
0011
0000
0011
0000
0010
0100
1000
0010
0100
0010
1000
0001
0020
0001
0031
0000
,  // measure 45
1001
0000
1000
0001
0010
0100
0010
0000
0100
0000
0001
0000
1000
0000
0000
0000
,  // measure 46
0201
0000
0000
0000
0310
0000
2010
0000
0000
0000
3100
0000
0010
0001
0100
0000
,  // measure 47
0010
0000
1000
0001
0010
0000
0000
0000
0100
0000
0000
0000
0010
0000
0000
0000
,  // measure 48
0001
0000
0010
0000
1000
0000
0010
0000
0200
0000
0000
0000
0310
0100
0010
0000
,  // measure 49
0001
0100
0010
1000
0001
0100
0010
1000
,  // measure 50
0001
0010
0100
1000
0001
0010
0100
1000
,  // measure 51
0001
1000
0001
1000
0001
1000
0001
1000
0001
1000
0001
1000
0001
1000
0001
1000
,  // measure 52
0001
0100
1000
0100
0020
0100
0130
0000
,  // measure 53
1010
0000
1010
0000
1000
0010
0100
0001
,  // measure 54
0021
0030
0120
0030
0022
0000
0033
0000
,  // measure 55
0101
0000
0101
0000
0001
0100
0010
1000
,  // measure 56
0100
0001
0100
0010
0022
0000
0033
0000
,  // measure 57
1100
0000
1100
0000
0100
1000
0010
0100
,  // measure 58
0001
0001
1002
0003
0202
0000
0303
0000
,  // measure 59
1010
0000
1010
0000
1000
0010
0100
0001
,  // measure 60
0010
1000
0010
0100
2000
0001
3001
0000
,  // measure 61
1001
0000
1001
0000
1000
0010
0100
0001
,  // measure 62
0011
0110
1100
0110
,  // measure 63
0011
0000
0011
0000
0001
0100
1000
0100
,  // measure 64
0010
1000
0001
0010
0200
0000
0300
0000
,  // measure 65
0110
0000
0110
0000
0010
0001
0100
0010
,  // measure 66
1010
1000
1000
0000
0101
0000
0011
0000
,  // measure 67
1001
0000
1001
0000
0001
0100
0001
0100
,  // measure 68
0001
0100
1000
0010
0002
1000
1003
0000
,  // measure 69
0220
0000
0000
0000
,  // measure 70
0330
0000
0000
0000
;
