#TITLE:Witching Hour (Alternative);
#SUBTITLE:;
#ARTIST:源屋;
#TITLETRANSLIT:;
#SUBTITLETRANSLIT:;
#ARTISTTRANSLIT:Minamotoya;
#GENRE:;
#CREDIT:;
#BANNER:Witching Hour.png;
#BACKGROUND:Witching Hour-bg.png;
#LYRICSPATH:;
#CDTITLE:;
#MUSIC:Witching Hour.ogg;
#OFFSET:-5.489998;
#SAMPLESTART:32.905148;
#SAMPLELENGTH:12.514286;
#SELECTABLE:YES;
#BPMS:0.000000=175.000000
,13.000000=43.750000
,21.000000=87.500000
,35.000000=43.750000
,36.000000=175.000000
,100.000000=87.500000
,132.000000=175.000000
;
#STOPS:12.000000=1.029000,
192.000000=1.029000
;
#BGCHANGES:;
#KEYSOUNDS:;
#ATTACKS:;

//---------------dance-single - ----------------
#NOTES:
     dance-single:
     :
     Challenge:
     14:
     0.549844,1.319182,0.540454,0.211799,0.186237,527.000000,453.000000,74.000000,29.000000,0.000000,0.000000,0.549844,1.319182,0.540454,0.211799,0.186237,527.000000,453.000000,74.000000,29.000000,0.000000,0.000000:
// measure 0
1000
0010
0100
0001
1000
0010
0100
0001
,  // measure 1
1000
0100
0010
0001
1000
0100
0010
0001
,  // measure 2
1000
0010
1000
0010
0100
0001
0100
0001
0010
0001
0010
0001
1000
0100
1000
0010
,  // measure 3
0100
0000
0000
0000
0000
0000
0000
0000
1001
0000
0000
1000
0000
1000
0000
1000
1100
0000
0100
1000
0010
0000
0100
0000
0101
0000
0000
0001
0000
0001
0000
0001
,  // measure 4
0011
0000
1000
0001
0010
0000
0011
0000
1100
0000
0000
0100
0000
0100
0000
0100
0110
0000
0010
0100
1000
0000
0001
0000
1001
0000
0000
0001
0000
0001
0000
0001
,  // measure 5
1001
1000
0100
0001
0100
1000
0010
0100
1001
0000
0000
0000
1000
0000
0000
0000
1010
0000
0000
0000
0010
0000
0000
0000
0110
0000
0000
0000
0100
0000
0000
0000
,  // measure 6
0101
0011
0101
0001
1001
1000
1100
0100
,  // measure 7
0110
1100
0110
0110
0011
0011
1100
1100
,  // measure 8
0101
0000
0000
0000
0101
0000
0000
0000
0001
0000
0001
0000
0100
0000
0010
0000
1000
0000
1000
0000
0010
0000
0100
0000
0001
0000
0000
0010
0100
0010
0001
1000
,  // measure 9
0001
0200
0000
1300
1100
0000
1000
0001
,  // measure 10
0010
0200
0000
0310
0011
0000
0010
0100
,  // measure 11
1000
0002
0000
1003
1001
0000
1000
0001
,  // measure 12
0010
0200
0000
1300
1100
0011
1100
0000
,  // measure 13
0100
2000
0000
3010
0110
0000
0100
0001
,  // measure 14
0010
0002
0000
1003
1001
0000
0001
0100
,  // measure 15
0001
2000
0000
3100
0110
0000
0100
1000
,  // measure 16
1001
0000
0000
0101
0000
0000
1001
0000
0010
0000
0100
0000
0002
0000
0000
0000
,  // measure 17
0013
0011
1100
0000
1001
0000
0001
0100
,  // measure 18
1000
0100
0010
1000
1001
0000
0001
0010
,  // measure 19
0100
0010
0001
0100
0110
0000
0100
0001
,  // measure 20
1000
0100
0010
0001
0011
0011
0101
0000
,  // measure 21
0000
0100
0000
0000
0010
0000
0000
1000
,  // measure 22
0000
0001
0000
0000
1000
0000
0000
0100
,  // measure 23
0000
1000
0000
0000
0010
0000
0000
0100
,  // measure 24
0000
0010
0000
0000
1000
0000
0000
0001
,  // measure 25
2001
0000
3200
0000
,  // measure 26
0320
0000
0230
0000
,  // measure 27
0320
0000
0032
0000
,  // measure 28
2003
0000
3002
0203
,  // measure 29
0320
0000
2030
0000
,  // measure 30
3200
0000
2300
0000
,  // measure 31
3020
0000
0230
0000
,  // measure 32
0302
0000
0203
0320
,  // measure 33
1030
1000
1000
1000
,  // measure 34
0001
0000
0001
0000
1000
0000
0001
1000
,  // measure 35
0010
0010
0100
0100
,  // measure 36
0001
0000
0100
0000
0001
0000
0001
1000
,  // measure 37
0010
0010
0010
0010
,  // measure 38
0100
0000
0100
0000
0001
0000
0001
1000
,  // measure 39
0010
0010
0010
1000
,  // measure 40
0001
0000
0001
0000
0001
0000
0001
1000
,  // measure 41
1001
1001
1001
1001
,  // measure 42
0110
0000
0110
0000
0110
0000
0110
0100
,  // measure 43
0110
0000
0110
0000
0110
0000
1001
0001
,  // measure 44
0101
0000
1010
0000
1000
0001
0011
0000
,  // measure 45
1001
0000
0001
0100
1000
0000
1000
0100
,  // measure 46
0001
0000
0001
0100
1000
0000
1000
0100
,  // measure 47
0010
0000
0000
0000
1000
0000
0000
0000
0010
0000
0100
0000
0001
1000
0001
1000
,  // measure 48
0001
0000
1000
0001
0010
0001
0100
0010
,  // measure 49
1000
0001
0010
0100
0010
0001
0100
0010
,  // measure 50
1000
0100
1000
0001
0010
0001
0100
0010
,  // measure 51
1000
0100
0010
0100
1000
0010
1000
0001
,  // measure 52
0020
0000
0130
0010
0100
1000
0010
0100
,  // measure 53
0001
0010
0001
1000
0100
0010
0100
1000
,  // measure 54
0010
0100
0001
0010
0001
0100
0001
1000
,  // measure 55
0100
0010
0100
1000
0010
0100
0001
1000
,  // measure 56
0200
0000
0310
0001
0100
0010
1000
0001
,  // measure 57
0010
0100
0010
0001
1000
0010
1000
0001
,  // measure 58
0010
0100
1000
0100
0010
0100
1000
0001
,  // measure 59
0100
0001
0010
0001
1000
0100
1100
0000
,  // measure 60
0101
0000
1001
1000
0001
0010
0100
0010
,  // measure 61
0001
0100
0010
1000
0001
0010
0100
0010
,  // measure 62
0001
1000
0010
1000
0001
0010
0100
0010
,  // measure 63
0001
0000
1000
0000
1100
0000
0000
1100
0000
0000
1100
0000
1000
0000
0001
0000
,  // measure 64
0201
0310
1000
0001
,  // measure 65
0010
0100
0010
0001
,  // measure 66
1000
0001
0100
0000
0001
0000
0010
0000
,  // measure 67
0100
0010
0001
0000
0010
0000
0100
1000
,  // measure 68
0001
0000
0000
0000
1000
0000
0000
1000
0000
0000
1000
0000
1001
0000
0000
0000
,  // measure 69
0000
0000
0000
0000
0001
0000
0000
0001
0000
0000
0001
0000
1001
0000
0000
0000
,  // measure 70
0010
0100
0010
0100
0010
0000
0000
0000
1000
0000
0000
0000
0001
0000
0000
0000
,  // measure 71
1000
0100
0010
0001
,  // measure 72
1000
1001
0000
0000
;
