#TITLE:When the sun comes down;
#SUBTITLE:(Radio Mix) (Alternative);
#ARTIST:R.I.O.;
#TITLETRANSLIT:;
#SUBTITLETRANSLIT:;
#ARTISTTRANSLIT:;
#GENRE:;
#CREDIT:;
#BANNER:When the sun comes down (Radio Mix).png;
#BACKGROUND:When the sun comes down (Radio Mix)-bg.png;
#LYRICSPATH:;
#CDTITLE:cdtitle.png;
#MUSIC:When the sun comes down (Radio Mix).mp3;
#OFFSET:0.068000;
#SAMPLESTART:92.480003;
#SAMPLELENGTH:12.000000;
#SELECTABLE:YES;
#BPMS:0.000000=128.000000
,131.000000=64.000000
,147.000000=128.000000
;
#STOPS:146.500000=1.875000
;
#BGCHANGES:;
#KEYSOUNDS:;
#ATTACKS:;

//---------------dance-single - ----------------
#NOTES:
     dance-single:
     :
     Challenge:
     13:
     0.482192,0.654207,0.651120,0.172135,0.445306,451.000000,364.000000,87.000000,23.000000,0.000000,0.000000,0.482192,0.654207,0.651120,0.172135,0.445306,451.000000,364.000000,87.000000,23.000000,0.000000,0.000000:
// measure 0
0000
0000
0000
0000
,  // measure 1
0000
0000
0000
0000
,  // measure 2
0000
0000
0000
0000
,  // measure 3
0000
0000
0000
0000
,  // measure 4
0000
0000
0000
0000
,  // measure 5
0000
0000
0000
0000
,  // measure 6
0000
0000
0000
0000
,  // measure 7
0000
0000
0000
0000
,  // measure 8
0000
0000
0000
0000
0000
0000
0000
0000
0000
0000
0000
0000
0001
0000
0000
0100
,  // measure 9
0000
0000
0001
0000
1000
0000
0000
0010
0000
0000
0000
0000
0100
0000
0000
0001
,  // measure 10
0000
0000
1000
0000
0010
0000
0000
0100
0000
0000
0000
0000
0001
0000
0000
0010
,  // measure 11
0000
0000
0001
0000
1000
0000
0000
1010
0000
0000
0000
0000
1000
0000
0000
0100
,  // measure 12
0000
0000
1000
0000
0010
0000
0000
0101
0000
0000
0000
0000
0021
0000
0000
0000
,  // measure 13
0000
0130
0000
0000
0021
0000
0000
0130
,  // measure 14
0000
0000
0000
0000
0000
0000
0000
0000
0000
0000
0000
0000
0001
0000
0000
0010
,  // measure 15
0000
0000
0001
0000
1000
0000
0000
0010
0000
0000
0200
0000
0310
0000
1000
0000
,  // measure 16
0001
0000
0010
0000
0100
1000
0100
1000
0200
0000
0000
0000
1300
0000
0000
0000
,  // measure 17
0010
0000
0000
0000
0100
0000
0001
0010
0000
0100
0010
0000
0002
0000
0000
0000
,  // measure 18
0103
0000
0000
0000
0010
0000
1000
0100
0000
0010
0100
0000
2000
0000
0000
0000
,  // measure 19
3001
0000
0000
0000
1000
0000
0001
0010
0000
0001
0100
0000
0020
0000
0000
1030
,  // measure 20
0000
0000
0001
0000
0000
0000
0000
0001
0000
0000
0000
0000
0020
0000
0000
0000
,  // measure 21
0031
0000
0000
0000
0010
0000
0001
0010
0000
0100
1000
0000
0020
0000
0000
0000
,  // measure 22
1030
0000
0000
0000
0010
0000
0100
0010
0000
1000
0001
0000
0020
0000
0000
0000
,  // measure 23
0130
0000
0000
0000
0010
0000
0001
0010
0000
0001
0100
0000
0020
0000
0000
0000
,  // measure 24
1030
0100
0010
0100
1000
0000
0001
0000
0000
0010
0000
0000
1001
0000
0000
1010
,  // measure 25
0000
0000
1001
0000
0000
0000
0011
0000
0000
0110
0000
0000
1100
0000
0000
0110
,  // measure 26
0000
0000
0011
0000
0000
0000
0011
0000
0000
1100
0000
0000
0110
0000
0000
0011
,  // measure 27
0000
0000
0110
0000
0000
0000
1001
0000
0000
1010
0000
0000
0101
0000
0000
0011
,  // measure 28
0000
0000
1001
0000
0000
0000
0101
0000
0000
1010
0000
0000
1100
0000
0000
0110
,  // measure 29
0000
0000
0011
0000
0000
0000
0011
0000
0000
1100
0000
0000
0110
0000
0000
0011
,  // measure 30
0000
0000
0110
0000
0000
0000
0011
0000
0000
1100
0000
0000
0110
0000
0000
1000
,  // measure 31
0000
1000
0001
0010
0200
0000
0000
0000
,  // measure 32
0000
0000
0020
0000
0000
0000
0000
0000
0330
0000
0000
0000
1001
0000
0001
0100
,  // measure 33
1000
0000
0100
0000
0010
0000
1000
0000
0001
0000
0000
0000
1000
0000
0000
0001
0100
0000
0000
0000
0010
0000
0000
0000
0000
0000
1000
0000
0100
0000
1000
0000
,  // measure 34
0010
0000
0100
0000
0001
0000
0010
0000
0100
0000
0000
0010
0001
0000
0000
0000
1000
0000
0000
0001
0100
0000
0000
0000
0010
0000
0000
0000
0100
0000
0010
0000
,  // measure 35
1000
0000
0001
0000
0010
0000
0100
0000
1000
0000
0000
0001
0010
0000
0000
0000
0100
0000
0000
1000
0010
0000
0000
0000
0100
0000
0000
0000
0010
0000
1000
0000
,  // measure 36
0001
0010
1000
0010
0001
0000
2000
0000
0000
0000
0001
3000
0101
0000
0000
0000
,  // measure 37
0000
0000
0000
0000
0201
0000
0000
0010
0000
0000
0001
0000
0301
0000
0000
0000
,  // measure 38
0000
0000
0000
0000
1002
0000
0000
0100
0000
0000
1000
0000
1003
0000
0000
0000
,  // measure 39
0000
0000
0000
0000
2001
0000
0000
0010
0000
0000
0001
0000
3001
0000
0000
0000
,  // measure 40
0000
0000
0000
0101
,  // measure 41
0000
0000
0000
0000
1020
0000
0000
0100
0000
0000
1000
0000
1030
0000
0000
0000
,  // measure 42
0000
0000
0000
0000
0021
0000
0000
0100
0000
0000
0001
0000
0031
0000
0000
0000
,  // measure 43
0000
0000
0000
0000
0102
0000
0000
0010
0000
0000
1000
0000
1003
0000
0001
0000
,  // measure 44
0100
0000
0010
0000
1000
0001
1000
0001
0020
0000
0000
0000
0130
0000
0000
1100
,  // measure 45
0000
0000
1010
0000
1000
0000
0001
0010
0000
0100
0010
0000
0011
0000
0000
1100
,  // measure 46
0000
0000
1001
0000
0001
0000
0100
0010
0000
1000
0100
0000
0110
0000
0000
1100
,  // measure 47
0000
0000
1001
0000
1000
0000
0001
0010
0000
0001
0100
0000
0110
0000
0000
0101
,  // measure 48
0000
0000
1001
0000
0000
0000
0000
0010
0000
0000
0000
0000
1001
0000
0000
1100
,  // measure 49
0000
0000
0110
0000
0100
0000
1000
0010
0000
0100
0001
0000
0011
0000
0000
0110
,  // measure 50
0000
0000
1100
0000
0100
0000
1000
0010
0000
0100
0010
0000
1010
0000
1000
0000
,  // measure 51
0000
1000
0000
0000
1000
0000
0001
0000
0020
0000
0000
0000
0000
0000
0100
0000
,  // measure 52
0030
0000
0000
0000
0010
0001
0000
0010
0001
0000
1000
0000
1001
0000
0000
1010
,  // measure 53
0000
0000
0101
0000
0001
0000
0001
0010
0000
0010
0100
0000
1100
0000
0000
0110
,  // measure 54
0000
0000
0011
0000
0001
0000
0010
0100
0000
0100
1000
0000
1010
0000
0000
0101
,  // measure 55
0000
0000
1001
0000
1000
0000
0100
0010
0000
0010
0001
0000
0011
0000
0000
1100
,  // measure 56
0000
0000
1001
0000
0000
0000
0110
0000
0000
0101
0000
0000
0011
0000
0000
0110
,  // measure 57
0000
0000
1100
0000
0100
0000
1000
0010
0000
0010
0100
0000
0101
0000
0000
0011
,  // measure 58
0000
0000
0110
0000
0100
0000
1000
0001
0000
0001
0100
0000
0101
0000
0000
0011
,  // measure 59
0000
0000
1001
0000
0000
0000
1000
0000
0020
0000
0000
0000
0130
0001
0000
0010
,  // measure 60
0100
0001
0010
0001
0100
0000
0010
1000
0001
0000
1000
0000
1001
0000
1000
0000
,  // measure 61
0100
0000
0010
0000
0100
0000
1000
0010
0000
0100
0001
0000
0010
0000
0100
0000
,  // measure 62
0010
0000
0001
0000
1000
0000
0001
0100
0000
0010
0100
0000
0010
0000
1000
0000
,  // measure 63
0001
0000
0010
0000
0100
0000
0010
0001
0000
1000
0010
0000
0100
0000
0000
0100
,  // measure 64
0000
0000
0100
0000
0010
0000
0000
1000
0000
0000
0001
0000
1001
0000
0000
0000
;
