#VERSION:0.83;
#TITLE:Viva La Vida;
#SUBTITLE:(Wayne Mont Remix) (Alternative);
#ARTIST:DJ Auzern;
#TITLETRANSLIT:;
#SUBTITLETRANSLIT:;
#ARTISTTRANSLIT:;
#GENRE:;
#ORIGIN:;
#CREDIT:;
#BANNER:Viva La Vida (Wayne Mont Remix).png;
#BACKGROUND:Viva La Vida (Wayne Mont Remix)-bg.png;
#PREVIEWVID:;
#JACKET:Viva La Vida (Wayne Mont Remix)-jacket.png;
#CDIMAGE:;
#DISCIMAGE:;
#LYRICSPATH:;
#CDTITLE:cdtitle.png;
#MUSIC:Viva La Vida (Wayne Mont Remix).ogg;
#OFFSET:-6.672000;
#SAMPLESTART:27.660000;
#SAMPLELENGTH:12.000000;
#SELECTABLE:YES;
#BPMS:0.000=72.000,
25.000=144.000;
#STOPS:;
#DELAYS:;
#WARPS:;
#TIMESIGNATURES:0.000=4=4;
#TICKCOUNTS:0.000=4;
#COMBOS:0.000=1;
#SPEEDS:0.000=1.000=0.000=0;
#SCROLLS:0.000=1.000;
#FAKES:;
#LABELS:0.000=Song Start;
#BGCHANGES:;
#KEYSOUNDS:;
#ATTACKS:
;

//---------------dance-single - ----------------
#NOTEDATA:;
#CHARTNAME:;
#STEPSTYPE:dance-single;
#DESCRIPTION:;
#CHARTSTYLE:;
#DIFFICULTY:Challenge;
#METER:12;
#RADARVALUES:0.495386,0.564271,0.440063,0.149622,0.083612,394.000000,344.000000,50.000000,17.000000,0.000000,0.000000,0.000000,0.000000,0.000000,0.495386,0.564271,0.440063,0.149622,0.083612,394.000000,344.000000,50.000000,17.000000,0.000000,0.000000,0.000000,0.000000,0.000000;
#CREDIT:;
#NOTES:
// measure 0
0000
0000
0000
0000
,  // measure 1
0000
0000
0000
0000
,  // measure 2
0200
0301
0020
0030
,  // measure 3
0200
1300
0002
0003
,  // measure 4
2000
0000
3010
0000
0100
0001
0010
0000
,  // measure 5
0100
0000
0010
0000
0001
0000
1000
0020
0000
0000
0000
0000
0000
0000
0000
0000
,  // measure 6
0030
0000
0000
1000
0100
0010
0001
1000
,  // measure 7
1010
0000
1000
0001
0011
0000
0001
1000
,  // measure 8
1100
0000
1000
0001
0101
0000
0001
0010
,  // measure 9
0110
0000
0100
1000
1010
0000
0010
0100
,  // measure 10
0001
0010
0100
1000
1001
0000
0001
0010
,  // measure 11
1100
0000
1000
0100
0011
0000
0001
0100
,  // measure 12
1010
0000
1000
0010
0101
0000
0001
1000
,  // measure 13
0100
1000
0001
0100
0001
0010
1000
0010
,  // measure 14
0001
1000
0100
0000
0000
0000
0001
1000
,  // measure 15
1100
1000
0010
0100
0101
0001
0010
0100
,  // measure 16
1100
1000
0010
0100
0110
0100
0001
0010
,  // measure 17
0011
0010
0100
1000
1100
1000
0010
0100
,  // measure 18
0110
0000
0010
0000
1000
0000
0001
0000
1001
0000
0000
0010
0100
0000
0000
0000
,  // measure 19
0100
0000
0000
0000
0100
0000
0000
0000
0100
0000
0000
0010
0100
0000
0000
0000
,  // measure 20
0100
0000
0000
0000
0100
0000
0000
0000
0100
0000
0100
0010
0100
0000
0010
0000
,  // measure 21
1000
0001
1001
1000
0010
0100
1001
0001
,  // measure 22
0010
0100
0020
0000
0000
0000
0030
0000
,  // measure 23
0000
0000
0000
0000
0000
0000
0001
0000
1000
0100
0010
0100
1000
0000
1000
0000
,  // measure 24
0001
1000
0001
0000
0000
0100
0010
0010
,  // measure 25
0100
0001
0010
0010
0100
0010
0001
0001
,  // measure 26
1000
0001
0010
0000
0000
0100
0100
0010
,  // measure 27
0001
1000
0010
0010
0100
0001
1000
1000
,  // measure 28
0001
0100
0020
0000
0030
0000
1000
1000
,  // measure 29
0001
0100
0020
0000
0030
0000
1000
1000
,  // measure 30
0001
0100
0010
0010
1000
0001
1000
0010
,  // measure 31
0100
0001
0010
0110
1001
0000
0010
0001
,  // measure 32
0100
0000
0010
0000
0100
0000
0000
0000
0000
0000
0100
0010
1000
0000
0001
0000
,  // measure 33
0010
1000
0010
0100
0010
0001
1000
1000
,  // measure 34
0001
0000
0100
0000
0001
0000
0000
0000
0000
0000
1000
0010
0100
0000
0010
0000
,  // measure 35
1000
0000
0001
0000
0010
0000
0100
0000
0010
0000
0001
1000
0000
0000
1000
0000
,  // measure 36
0100
0000
0010
0000
1001
0000
0000
0000
0000
0000
1000
0001
0100
0000
0001
0000
,  // measure 37
0100
0001
0010
0001
1000
0100
0010
0010
,  // measure 38
0100
0000
0010
0000
0001
0000
0000
0000
0001
0000
0000
1000
0010
0000
0010
0000
,  // measure 39
0100
0001
0020
0000
0030
0100
0110
0100
,  // measure 40
1100
0000
1000
0000
1001
0000
0000
0000
0000
0000
1000
0010
1000
0000
0010
0000
,  // measure 41
0110
0100
0101
0001
0011
0010
0110
0010
,  // measure 42
0011
0000
0001
0000
1001
0000
0000
0000
0000
0000
0001
0100
0001
0000
0100
0000
,  // measure 43
0110
0000
0010
0000
1010
0000
1000
0000
1001
0000
0001
0100
0000
0000
0010
0000
,  // measure 44
0100
0000
0100
0000
1001
0000
0000
0000
0000
0000
0001
1000
0001
0000
1000
0000
,  // measure 45
1100
1000
1010
0010
0110
0100
0101
0001
,  // measure 46
0101
0000
0100
0000
0110
0000
0000
0000
1010
0000
0000
0001
0100
0000
0001
0000
,  // measure 47
0010
0100
1100
0000
0000
0000
0012
0000
,  // measure 48
0103
1020
0130
2001
,  // measure 49
3100
0012
0203
0320
,  // measure 50
1000
0000
0000
0000
0100
0030
0000
0000
0000
0000
0010
0100
0010
0000
0100
0000
,  // measure 51
0010
1000
0001
0010
0100
1000
1001
0000
,  // measure 52
0001
0000
0000
0000
0001
0000
0000
0000
0001
0000
0000
1000
0001
0000
0000
0000
,  // measure 53
0001
0000
0001
0000
0001
0001
1000
0001
,  // measure 54
1000
0001
0100
0010
0100
0010
0100
0100
,  // measure 55
0010
0000
1000
0000
0200
0000
0000
0000
0000
0000
0000
0310
0100
0000
0000
0000
;
