#VERSION:0.83;
#TITLE:Verflucht;
#SUBTITLE:-VOLTAGE SPECIAL-;
#ARTIST:Tyrfing;
#TITLETRANSLIT:;
#SUBTITLETRANSLIT:;
#ARTISTTRANSLIT:;
#GENRE:;
#ORIGIN:;
#CREDIT:;
#BANNER:Verflucht.png;
#BACKGROUND:Verflucht-bg.png;
#PREVIEWVID:;
#JACKET:Verflucht-jacket.png;
#CDIMAGE:;
#DISCIMAGE:;
#LYRICSPATH:;
#CDTITLE:;
#MUSIC:06. Verflucht.mp3;
#OFFSET:-0.550000;
#SAMPLESTART:88.530006;
#SAMPLELENGTH:10.666664;
#SELECTABLE:YES;
#BPMS:0.000=180.000;
#STOPS:260.000=0.042,
260.125=0.042,
260.250=0.042,
260.375=0.042,
260.500=0.042,
260.625=0.042,
260.750=0.042,
260.875=0.042,
261.000=0.042,
261.125=0.042,
261.250=0.042,
261.375=0.042,
261.500=0.042,
261.625=0.042,
261.750=0.042,
261.875=0.042;
#DELAYS:;
#WARPS:;
#TIMESIGNATURES:0.000=4=4;
#TICKCOUNTS:0.000=4;
#COMBOS:0.000=1;
#SPEEDS:0.000=1.000=0.000=0;
#SCROLLS:0.000=1.000;
#FAKES:;
#LABELS:0.000=Song Start;
#BGCHANGES:;
#KEYSOUNDS:;
#ATTACKS:
;

//---------------dance-single - ----------------
#NOTEDATA:;
#CHARTNAME:;
#STEPSTYPE:dance-single;
#DESCRIPTION:;
#CHARTSTYLE:;
#DIFFICULTY:Challenge;
#METER:17;
#RADARVALUES:1.006210,1.339904,0.034612,0.155752,1.228714,814.000000,810.000000,4.000000,18.000000,0.000000,0.000000,0.000000,0.000000,0.000000,1.006210,1.339904,0.034612,0.155752,1.228714,814.000000,810.000000,4.000000,18.000000,0.000000,0.000000,0.000000,0.000000,0.000000;
#CREDIT:;
#NOTES:
// measure 0
0000
0000
0000
0000
,  // measure 1
0000
0000
0000
0000
,  // measure 2
0001
0100
0001
0000
0010
0000
0100
1000
0100
0000
1000
0000
0001
0000
0000
0000
,  // measure 3
1000
0010
1000
0000
0001
0000
0010
0001
0010
0000
0001
0000
1000
0000
0000
0000
,  // measure 4
0001
0100
0001
0000
0100
0000
0010
0100
0010
0000
1000
0000
0100
0000
0000
0000
,  // measure 5
0010
0001
0010
0000
0001
0000
0100
0001
0100
0000
0001
0000
0010
0000
0100
0000
,  // measure 6
1000
0100
1000
0000
0100
0000
0010
0100
0010
0000
0100
0000
1000
0000
0000
0000
,  // measure 7
0001
1000
0001
0000
0100
0000
0001
0010
0001
0000
1000
0000
0100
0000
0000
0000
,  // measure 8
0010
0100
0010
0000
0100
0000
1000
0010
1000
0000
0010
0000
0100
0000
0000
0000
,  // measure 9
0001
0000
1000
0000
0010
0000
0100
0000
0001
1000
0001
1000
0001
0000
0000
0000
,  // measure 10
1000
0000
0100
0000
0000
0010
0000
0000
0001
0000
0100
0010
0000
0100
0001
0000
,  // measure 11
1000
0000
0100
0000
0000
1000
0000
0000
0010
0000
0100
0001
0000
0010
0100
0000
,  // measure 12
0010
0000
0001
0000
0000
1000
0000
0000
0100
0000
1000
0100
0000
0100
0010
0000
,  // measure 13
0001
0000
1000
0000
0000
0100
0000
0000
1000
0000
0010
0100
0000
0100
0001
0000
,  // measure 14
0010
0000
0001
0000
0000
1000
0000
0000
0100
0000
0010
0100
0000
0010
0001
0000
,  // measure 15
1000
0000
0001
0000
0000
0100
0000
0000
0001
0000
0010
0100
0000
0010
0001
0000
,  // measure 16
1000
0001
0100
0001
0010
0100
1000
0001
,  // measure 17
1000
0010
1000
0010
1000
0010
1000
0010
1000
0010
1000
0010
1000
0010
1000
0010
,  // measure 18
1000
1000
0001
1000
0001
0001
1000
0001
,  // measure 19
1000
1000
0001
0001
0220
0000
0300
0000
,  // measure 20
0130
0000
0000
0001
1000
0000
0001
1000
,  // measure 21
0000
0001
1000
0000
0001
0000
1000
0000
,  // measure 22
0010
0010
0100
0010
0100
0100
0010
0100
,  // measure 23
0010
0010
0100
0100
2002
0000
0003
0000
,  // measure 24
3001
0000
0000
1000
0001
0000
1000
0001
,  // measure 25
0000
1000
0001
0000
1001
0000
0110
0000
,  // measure 26
1000
0010
1000
0010
1000
0010
1000
0010
1000
0010
1000
0010
1000
0000
0100
0001
,  // measure 27
0010
0100
0010
0100
0010
0100
0010
0100
0010
0000
0000
0000
0100
0000
0010
0001
,  // measure 28
0100
0010
0100
0010
0100
0010
0100
0010
0100
0010
0100
0010
0100
0000
0010
1000
,  // measure 29
0100
0010
0100
0010
0100
0010
0100
0010
0100
0000
0010
0001
0010
0001
0010
0001
,  // measure 30
0100
0001
0100
0001
0100
0001
0100
0001
0100
0001
0100
0001
0100
0000
0001
0100
,  // measure 31
0010
1000
0010
1000
0010
1000
0010
1000
0010
0000
0000
0000
1000
0000
1000
0001
,  // measure 32
0010
0100
0010
0100
0010
0100
0010
0100
0010
0100
0010
0100
0010
0000
0100
1000
,  // measure 33
0001
0000
1000
0000
0100
1000
0000
0001
0010
0000
0001
0100
0020
0000
0000
0000
,  // measure 34
1030
0001
0010
0100
0010
0001
0100
0010
,  // measure 35
1000
0000
0001
0000
0010
0000
0100
0000
0010
0000
0001
0000
1000
0100
1000
0100
,  // measure 36
1000
0100
1000
0010
0100
0001
0010
0100
,  // measure 37
0010
0000
0001
0000
0100
0000
0010
0000
1000
0010
1000
0000
0001
0100
0001
0000
,  // measure 38
0010
0100
0010
0001
1000
0010
1000
0100
,  // measure 39
0010
0000
0100
0000
1000
0000
0001
0000
0010
0000
0100
0000
1000
0010
1000
0010
,  // measure 40
0100
0001
0010
0100
0010
0001
1000
0010
,  // measure 41
0100
0000
0010
0000
1000
0010
0000
0100
0001
0000
0001
0010
0200
0000
0000
0000
,  // measure 42
1300
0001
0100
0001
1000
0100
1000
0001
0100
0001
1000
0001
1000
0010
1000
0001
,  // measure 43
1000
0001
0010
0001
1000
0010
1000
0001
1000
0100
1000
0001
1000
0100
0010
0001
,  // measure 44
1000
0001
0100
0001
1000
0100
1000
0001
0100
0001
1000
0001
1000
0010
1000
0001
,  // measure 45
1000
0001
0010
0001
1000
0010
1000
0001
1000
0100
0010
0001
1000
0100
0010
0001
,  // measure 46
1000
0001
0010
0001
1000
0010
1000
0001
0010
0001
1000
0010
1000
0001
0010
0001
,  // measure 47
1000
0001
0100
0001
1000
0100
1000
0001
0100
0001
1000
0100
1000
0100
0010
0001
,  // measure 48
1000
0001
0010
0001
1000
0010
1000
0001
0010
0001
1000
0010
1000
0001
0010
0001
,  // measure 49
1000
0010
0100
0001
0010
0100
0010
0001
0100
0010
1000
0001
0010
0100
1000
0001
,  // measure 50
2000
0000
0000
0000
3001
0100
0100
0002
,  // measure 51
0000
0103
0001
0020
0000
0000
0000
0000
,  // measure 52
0230
0000
0000
0000
0310
0001
0001
2000
,  // measure 53
0000
3001
1000
0002
0000
0000
0000
0000
,  // measure 54
0203
0000
0000
0000
0310
0010
1000
0020
,  // measure 55
0000
1030
0010
2000
0000
0000
3100
0010
,  // measure 56
0002
0000
0000
0000
,  // measure 57
0000
0000
0000
0000
,  // measure 58
0103
0010
0100
0010
0100
0010
0100
0010
0100
0010
0100
0010
0100
0000
0010
1000
,  // measure 59
0100
0010
0100
0010
0100
0010
0100
0010
0100
0000
0000
0000
0010
0000
0010
0001
,  // measure 60
1000
0010
1000
0010
1000
0010
1000
0010
1000
0010
1000
0010
1000
0000
0001
1000
,  // measure 61
0001
0010
0001
0010
0001
0010
0001
0010
0001
0000
0010
0100
0010
0100
0010
0100
,  // measure 62
1000
0100
1000
0100
1000
0100
1000
0100
1000
0100
1000
0100
1000
0000
0001
1000
,  // measure 63
0010
0100
0010
0100
0010
0100
0010
0100
0010
0000
0000
0000
0100
0000
0010
0100
,  // measure 64
0001
1000
0001
1000
0001
1000
0001
1000
0001
1000
0001
1000
0001
0000
1000
0001
,  // measure 65
0100
0010
0100
0010
0100
0010
0100
0010
0100
0010
0100
0001
1000
0010
0100
0001
1000
0000
0100
0000
0000
0000
0010
0000
0001
0000
0000
0000
0100
0000
0000
0000
,  // measure 66
0010
0000
1000
0001
0000
0010
0100
0000
0010
0000
0001
0000
0100
0000
0010
1000
,  // measure 67
0001
0000
0010
0001
0000
0001
0100
0000
0010
1000
0000
0001
0010
0000
0100
0000
,  // measure 68
0010
0000
0001
0100
0000
0010
1000
0000
0100
1000
0000
0100
0010
0000
0100
1000
,  // measure 69
0100
0000
0010
0100
0000
0100
1000
0000
0100
0010
0000
0100
1000
0000
0010
0000
,  // measure 70
0100
0000
0001
1000
0000
0010
0100
0000
0001
0010
0000
0100
0010
0000
0100
1000
,  // measure 71
0010
0000
0100
0001
0000
0001
0010
0000
0100
0010
0000
0100
1000
0000
0010
0000
,  // measure 72
0100
0000
0001
1000
0000
0010
1000
0000
0100
0000
0010
0000
0100
0000
1000
0000
,  // measure 73
0001
1000
0001
1000
0002
0000
2003
0000
3010
1000
0000
1000
0100
0000
0010
0000
,  // measure 74
0100
0000
0010
0001
0000
0010
0100
0000
0010
0001
0000
0001
0100
0000
0100
0010
,  // measure 75
1000
0000
0001
1000
0000
1000
0100
0000
1000
0001
0000
0001
0100
0000
0001
0000
,  // measure 76
0010
0000
0100
0010
0000
0010
0001
0000
1000
0000
0001
0000
0100
0000
0010
0000
,  // measure 77
1000
0001
0100
0010
0000
0000
0000
0000
1000
0000
0100
0000
1000
0000
0001
0000
,  // measure 78
0100
0001
0100
0001
0100
0000
0001
0000
1000
0000
0010
0000
1000
0000
0001
0000
,  // measure 79
0010
0100
0010
0100
0010
0000
0001
0000
1000
0001
1000
0001
1000
0001
1000
0001
,  // measure 80
1000
0001
1000
0001
1000
0000
0001
0100
0010
1000
0010
1000
0010
1000
0010
1000
,  // measure 81
0010
0000
0100
0001
0100
0001
1000
0100
0010
0000
0000
0000
0000
0000
0000
0000
;
