#VERSION:0.83;
#TITLE:Tubular Bells (Alternative);
#SUBTITLE:;
#ARTIST:kors k;
#TITLETRANSLIT:;
#SUBTITLETRANSLIT:;
#ARTISTTRANSLIT:;
#GENRE:;
#ORIGIN:;
#CREDIT:;
#BANNER:Tubular Bells.png;
#BACKGROUND:Tubular Bells-bg.png;
#PREVIEWVID:;
#JACKET:Tubular Bells-jacket.png;
#CDIMAGE:;
#DISCIMAGE:;
#LYRICSPATH:;
#CDTITLE:cdtitle.png;
#MUSIC:Tubular Bells.mp3;
#OFFSET:0.003000;
#SAMPLESTART:60.320000;
#SAMPLELENGTH:12.000000;
#SELECTABLE:YES;
#BPMS:0.000=175.000;
#STOPS:27.500=1.395,
164.000=1.009,
225.000=1.714;
#DELAYS:;
#WARPS:;
#TIMESIGNATURES:0.000=4=4;
#TICKCOUNTS:0.000=4;
#COMBOS:0.000=1;
#SPEEDS:0.000=1.000=0.000=0;
#SCROLLS:0.000=1.000;
#FAKES:;
#LABELS:0.000=Song Start;
#BGCHANGES:;
#KEYSOUNDS:;
#ATTACKS:
;

//---------------dance-single - ----------------
#NOTEDATA:;
#CHARTNAME:;
#STEPSTYPE:dance-single;
#DESCRIPTION:;
#CHARTSTYLE:;
#DIFFICULTY:Challenge;
#METER:16;
#RADARVALUES:0.824026,1.157087,0.701536,0.346437,0.554300,666.000000,585.000000,81.000000,40.000000,0.000000,0.000000,0.000000,0.000000,0.000000,0.824026,1.157087,0.701536,0.346437,0.554300,666.000000,585.000000,81.000000,40.000000,0.000000,0.000000,0.000000,0.000000,0.000000;
#CREDIT:Pandemonium X;
#NOTES:
// measure 0
0000
0000
0000
0000
,  // measure 1
0000
0000
0000
0000
,  // measure 2
0000
0000
0000
0000
,  // measure 3
0000
0000
0000
0000
,  // measure 4
0000
0000
0000
0000
,  // measure 5
0000
0000
0000
0000
,  // measure 6
0000
0000
0000
0000
,  // measure 7
1000
0000
0000
0000
0001
0000
0100
0000
0000
0000
0010
0000
1000
0100
0010
0000
,  // measure 8
0011
0000
0011
0000
0001
0100
1000
0100
,  // measure 9
0010
0000
0000
0000
0100
0000
0001
0000
0000
0000
0010
0000
0100
0010
0001
0000
,  // measure 10
1001
0000
1001
0000
0010
1000
0010
1000
,  // measure 11
0100
0000
0000
0000
0010
0000
0100
0000
0000
0000
1000
0000
0010
0100
0001
0000
,  // measure 12
0011
0000
0011
0000
1000
0100
1000
0001
,  // measure 13
0100
0000
0000
0000
0001
0000
0010
0000
0000
0000
0100
0000
1000
0010
0100
0000
,  // measure 14
0110
0000
0110
0000
1000
0001
1000
0000
,  // measure 15
0010
1000
0001
0100
0010
1000
0001
0100
,  // measure 16
0010
1000
0001
0100
0110
0000
1001
0000
,  // measure 17
0001
0010
0100
1000
0001
0010
0100
1000
,  // measure 18
0001
0010
0100
1000
1001
0000
1001
0000
,  // measure 19
1000
0001
1000
0001
1000
0001
1000
0001
0100
0010
0100
0010
0100
0010
0100
0010
,  // measure 20
1000
0010
1000
0010
1000
0010
1000
0010
0100
0001
0100
0001
0100
0001
0100
0001
,  // measure 21
1000
0001
1000
0001
1000
0001
1000
0001
1000
0001
1000
0001
1000
0001
1000
0001
,  // measure 22
1000
0010
0100
0001
1000
0100
0010
0100
1000
0010
0100
0001
0010
0100
1000
0001
,  // measure 23
2000
0000
0000
0000
3020
0000
0000
0000
1030
0010
0200
0000
0000
0000
0310
0000
,  // measure 24
1002
0000
0000
0000
0023
0000
0000
0000
1030
0010
0200
0000
0000
0000
1300
0000
,  // measure 25
1002
0000
0000
0000
0023
0000
0000
0000
0130
1000
0020
0000
0000
0000
0130
0000
,  // measure 26
0102
0000
0000
0000
0023
0000
0000
0000
0130
1000
0002
0000
0000
0000
0103
0001
,  // measure 27
0010
0000
0011
0000
0000
0000
0001
0010
0100
0000
1100
0000
0000
0000
1000
0001
,  // measure 28
0100
0000
0110
0000
0000
0000
1000
0001
0010
0000
1100
0000
0000
0000
1000
0010
,  // measure 29
0100
0000
0101
0000
0000
0000
0001
0010
0100
0000
1100
0000
0000
0000
1000
0001
,  // measure 30
0010
0000
0011
0000
0000
0000
0010
0001
1000
0000
1010
0000
0000
0000
1000
0001
,  // measure 31
0021
0000
2030
0000
3010
0002
0000
0203
,  // measure 32
0000
2300
0000
3200
0010
0000
0301
0000
,  // measure 33
1200
0000
0302
0000
0103
2000
0000
3020
,  // measure 34
0000
0032
0000
0023
0100
0000
1030
0000
,  // measure 35
1001
0000
0000
0001
0100
0000
0010
0000
1001
0000
0000
1000
0100
0000
0010
0000
,  // measure 36
1001
0000
0000
0001
0100
0000
0010
0000
1001
0000
0000
1000
0100
0000
0010
0000
,  // measure 37
1001
0010
1001
0100
1001
0010
1001
0100
,  // measure 38
1001
0010
1001
0100
1001
0010
1001
0100
,  // measure 39
1001
0001
0001
0001
1000
1000
1000
1000
,  // measure 40
0010
0010
0010
0010
0100
0100
0100
0100
,  // measure 41
1001
0000
0000
0000
0001
1000
0001
0000
0011
0000
0001
0100
1000
0000
0100
0000
,  // measure 42
1001
0000
0000
0000
0001
0100
0010
0000
1000
0010
0100
0000
0010
1000
0001
0000
,  // measure 43
0010
0000
0100
1000
0010
0000
0100
0001
1000
0000
0001
1000
0100
0000
0000
0000
,  // measure 44
0011
0000
0000
0000
0100
0010
0001
0000
0010
0100
1000
0000
0100
1000
0010
0000
,  // measure 45
0100
0000
0010
1000
0001
0000
0010
0001
0100
0000
0010
1000
0001
0000
0000
0000
,  // measure 46
1100
0000
0000
0000
1000
0001
0100
0000
0010
1000
0100
0000
0010
0100
1000
0000
,  // measure 47
0100
0000
1000
0010
0100
0000
0010
1000
0001
0000
0010
0100
1000
0000
0000
0000
,  // measure 48
0011
0000
0000
0000
0100
0010
1000
0000
0001
0010
0100
0000
0010
0001
1000
0000
,  // measure 49
0001
0000
0100
0001
0010
0000
0001
1000
0100
0000
0010
0100
1000
0000
0000
0000
,  // measure 50
1001
0000
0000
0000
1000
0001
0100
0000
0010
1000
0100
0000
0010
0100
1000
0000
,  // measure 51
0100
0000
0010
0001
0100
0000
0010
1000
0001
0000
0010
0100
1000
0000
0000
0000
,  // measure 52
0101
0000
0000
0000
1000
0010
0100
0000
0010
1000
0001
0000
0010
0100
1000
0000
,  // measure 53
0100
0000
0010
0001
0100
0000
0010
1000
0100
0000
0010
0100
1000
0000
0000
0000
,  // measure 54
1001
0000
1000
0010
0100
0001
0010
0100
,  // measure 55
0010
0000
0001
0000
1000
0010
1000
0010
0100
0001
0100
0001
0010
0100
1000
0100
,  // measure 56
0010
0001
1000
0010
0100
0000
0000
0000
0000
0000
0000
0000
0000
0000
0000
0000
,  // measure 57
1002
0000
0103
1020
0000
0130
2001
0000
,  // measure 58
0100
0000
3010
0100
0001
0010
0110
0110
,  // measure 59
0210
0000
1300
0201
0000
0310
1002
0000
,  // measure 60
0010
0000
0000
0000
0103
0000
0000
0000
0010
0000
1000
0000
0001
0000
0010
0100
,  // measure 61
2000
0000
3001
0210
0000
0310
2001
0000
,  // measure 62
0010
0000
3001
1000
1000
0100
0110
0110
,  // measure 63
0210
0000
2300
0000
3020
0000
0031
0021
,  // measure 64
0000
0230
0000
0301
0102
0000
0010
0000
,  // measure 65
1003
0000
0000
0000
0001
0000
0100
0000
0000
0000
0010
0000
1000
0001
0010
0000
,  // measure 66
1100
0000
0101
0001
0010
0001
1001
1001
,  // measure 67
1001
0000
0000
0000
1000
0000
0100
0000
0000
0000
1000
0000
0010
0100
0001
0000
,  // measure 68
1001
0000
1010
0000
0101
0000
0001
0010
,  // measure 69
1100
0000
0000
0000
0001
0000
0100
0000
0000
0000
0010
0000
0100
0001
1000
0000
,  // measure 70
1001
0000
0001
0010
0100
0010
0011
1100
,  // measure 71
0011
0000
0110
0000
1100
0000
1000
2100
,  // measure 72
0000
0010
0000
3001
1001
0000
0110
0000
,  // measure 73
0001
0000
0100
0000
1000
0000
0100
0010
,  // measure 74
1000
0000
0001
0010
0000
1000
0000
0010
,  // measure 75
0100
0000
1000
0000
0100
0000
0001
0100
,  // measure 76
0010
0000
0010
0100
0000
0010
0000
0100
,  // measure 77
0010
0001
0010
0001
0010
0001
0010
0001
0010
0001
0010
0001
0010
0001
0010
0001
,  // measure 78
1000
0100
1000
0100
1000
0100
1000
0100
1000
0100
1000
0100
1000
0100
1000
0100
,  // measure 79
1000
0010
0100
0001
0010
0100
0010
0001
0100
0010
1000
0001
0010
0100
1000
0001
,  // measure 80
1000
0000
0000
0000
0000
0000
0000
0000
0000
0000
0000
0000
0000
0000
0000
0000
0000
0000
0000
0000
0000
0000
0000
0000
0000
0000
0000
0000
0000
0000
0000
1001
;
