#TITLE:Thunderbolt (Alternative);
#SUBTITLE:;
#ARTIST:Rairyuu;
#TITLETRANSLIT:;
#SUBTITLETRANSLIT:;
#ARTISTTRANSLIT:;
#GENRE:;
#CREDIT:;
#BANNER:Thunderbolt.png;
#BACKGROUND:Thunderbolt-bg.png;
#LYRICSPATH:;
#CDTITLE:cdtitle.png;
#MUSIC:Thunderbolt.mp3;
#OFFSET:-0.364000;
#SAMPLESTART:14.060000;
#SAMPLELENGTH:12.000000;
#SELECTABLE:YES;
#BPMS:0.000000=187.979996
;
#STOPS:
;
#BGCHANGES:;
#KEYSOUNDS:;
#ATTACKS:;

//---------------dance-single - ----------------
#NOTES:
     dance-single:
     :
     Challenge:
     17:
     0.794804,0.943328,0.264935,0.120425,0.618181,693.000000,660.000000,33.000000,15.000000,68.000000,0.000000,0.794804,0.943328,0.264935,0.120425,0.618181,693.000000,660.000000,33.000000,15.000000,68.000000,0.000000:
// measure 0
0000
0000
0000
0000
,  // measure 1
MMMM
0000
0000
0000
,  // measure 2
0000
0000
0000
0000
,  // measure 3
0001
0010
0100
0100
0000
0010
0001
0000
,  // measure 4
1000
0010
0100
0100
0000
0010
1000
0001
,  // measure 5
0010
0100
0010
0010
0000
0100
0010
0010
,  // measure 6
0001
0000
0100
0010
0000
1000
0000
0010
1000
0000
0001
0000
1000
0000
0000
0000
,  // measure 7
0100
0010
0100
1000
0000
0001
0001
0000
,  // measure 8
0100
0001
0010
0100
0000
0010
0100
1000
,  // measure 9
0001
0100
0001
0010
0000
0100
0100
0100
,  // measure 10
0010
0000
0001
0000
0100
0000
0010
0000
1000
0000
0000
0000
0001
0020
0000
0000
,  // measure 11
0130
0000
0010
0000
0001
0100
0000
0010
0100
0000
0010
1000
0000
0100
0010
0000
,  // measure 12
0100
0000
1000
0000
0010
0100
0000
0010
1000
0000
0010
0100
0001
0010
0100
1000
,  // measure 13
0001
0000
1000
0000
0100
1000
0000
0100
0010
0000
0100
1000
0000
0010
0100
0000
,  // measure 14
0001
0000
1000
0001
0000
0001
0000
0001
0010
0000
1000
0000
0010
0000
0000
0000
,  // measure 15
0100
0000
0010
0000
0001
0100
0000
0010
0100
0000
0010
1000
0000
0100
0010
0000
,  // measure 16
0100
0000
1000
0000
0010
0100
0000
0001
0010
0000
0100
0010
0001
0010
0001
1000
,  // measure 17
0010
0000
0100
0000
0001
0010
0000
0100
0010
0000
0100
1000
0000
0001
0100
0000
,  // measure 18
0010
0000
0001
1000
0000
1000
0000
1000
0100
0000
0001
0000
0100
0000
0000
0000
,  // measure 19
0010
0000
0001
0100
0010
0000
0100
0010
1000
0000
0001
0000
MMMM
0000
0000
0000
,  // measure 20
1000
0000
0001
1000
0010
0000
0100
0001
0010
0000
0100
0000
MMMM
0000
0000
0000
,  // measure 21
1000
0000
0100
1000
0010
0000
0100
0001
0010
0000
0100
0000
MMMM
0000
0000
0000
,  // measure 22
0000
MMMM
0000
MMMM
0000
MMMM
MMMM
0000
,  // measure 23
0001
0000
1000
0001
0100
0000
0010
1000
0100
0000
0010
0000
MMMM
0000
0000
0000
,  // measure 24
0100
0000
0010
0001
0100
0000
0010
1000
0001
0000
1000
0000
MMMM
0000
0000
0000
,  // measure 25
0001
0000
1000
0010
0100
0000
0010
1000
0100
0000
0010
0000
MMMM
0000
0000
0000
,  // measure 26
0000
0000
MMMM
0000
0000
0000
MMMM
0000
MMMM
MMMM
MMMM
0000
MMMM
0000
0000
0000
,  // measure 27
1001
0000
1000
0000
0000
0100
0000
0000
0010
0000
0000
0100
0000
0000
1000
0000
,  // measure 28
0000
0001
0000
0000
0100
0000
0000
0010
0000
0000
1000
0000
0001
0000
0010
0000
,  // measure 29
0100
0000
0010
0000
0000
0100
0000
0000
1000
0000
0000
0010
0000
0000
0100
0000
,  // measure 30
0000
0001
0000
0000
0010
0000
0000
0100
0000
0000
0010
0000
0001
0000
1000
0000
,  // measure 31
0010
0000
0100
0000
0000
0001
0000
0000
0010
0000
0000
0001
0000
0000
1000
0000
,  // measure 32
0000
0100
0000
0000
0010
0000
0000
0100
0000
0000
0010
0000
0001
0000
1000
0000
,  // measure 33
0010
0000
1000
0000
0000
0100
0000
0000
0010
0000
0000
0001
0000
0000
0011
0000
,  // measure 34
0000
1100
0000
0000
1010
0000
0000
0101
0000
0000
1001
0000
0010
0200
0000
0000
,  // measure 35
0301
0100
0001
0000
0100
0000
0001
0100
0000
0000
0010
0000
1000
0000
0100
0000
,  // measure 36
0000
0010
0100
1000
0010
1000
0001
0000
,  // measure 37
0100
0010
0100
0000
0010
0000
0100
0010
0000
0000
0100
0000
0001
0000
0010
0000
,  // measure 38
0000
0100
0010
0001
0000
1000
0000
0010
,  // measure 39
1000
0010
1000
0000
0010
0000
1000
0010
0000
0000
0100
0000
0001
0000
1000
0000
,  // measure 40
0000
0100
0010
0001
1001
1001
1001
0000
,  // measure 41
0001
0010
0001
0000
0010
0000
0001
0010
0000
0000
0100
0000
0010
0000
0001
0000
,  // measure 42
0000
1000
0001
0100
0000
0010
0100
0001
,  // measure 43
1000
0100
0010
0000
0100
0000
1000
0010
0000
0000
0100
0000
0001
0000
1000
0000
,  // measure 44
0000
0001
0010
0100
1000
0010
1000
0000
,  // measure 45
0001
0010
0001
0000
0010
0000
0100
1000
0000
0000
0100
0000
1000
0000
0010
0000
,  // measure 46
0000
0100
0001
1000
0000
0001
0000
0001
,  // measure 47
0010
0100
1000
0000
0100
0000
1000
0010
0000
0000
0100
0000
0010
0000
1000
0000
,  // measure 48
0000
0001
1000
0001
0101
0011
0101
0000
,  // measure 49
0001
0100
0010
0000
0100
0000
0010
1000
0000
0000
0010
0000
0100
0000
0001
0000
,  // measure 50
0000
1000
0100
0010
0000
0100
0010
0001
,  // measure 51
1000
0000
0000
0100
0000
0000
1000
0000
0000
0010
0000
0000
0100
0000
0001
0000
,  // measure 52
0010
0000
0100
0000
1000
0010
0000
0000
0100
0000
0001
0000
1000
0100
0000
0000
,  // measure 53
0010
0000
0000
0100
0000
0000
1000
0000
0000
0001
0000
0000
0100
0000
0010
0000
,  // measure 54
1000
0000
0001
0000
0010
0100
0000
0000
0010
0000
0001
0000
0100
0010
0000
0000
,  // measure 55
2020
0000
3030
0000
,  // measure 56
0202
0000
0303
0000
,  // measure 57
0022
0000
0033
0000
,  // measure 58
2002
0000
0000
3003
,  // measure 59
1000
0001
0010
0100
0000
0010
0010
0000
,  // measure 60
0100
0000
0010
0000
0001
0000
1000
0000
0000
0000
0001
0000
0010
0001
1000
0100
,  // measure 61
0010
0100
1000
0010
0000
0100
0001
0001
,  // measure 62
1000
0000
0001
0100
0000
0010
0000
0100
0001
0000
1000
0000
0001
0000
0000
0000
,  // measure 63
1000
0100
0010
0100
0000
1000
1000
0000
,  // measure 64
0001
0000
0100
0000
0001
0000
0010
0000
0000
0000
0100
0000
0010
0001
0010
0001
,  // measure 65
1000
0001
0100
0001
0000
0100
0010
0010
,  // measure 66
0100
0000
0010
1000
0000
1000
0000
1000
0001
0000
0001
0000
1000
0100
0010
0001
,  // measure 67
1000
0000
0010
0000
0100
0001
0000
0010
0100
0000
0010
0001
0000
1000
0100
0000
,  // measure 68
1000
0000
0010
0000
0100
0001
0000
0010
0100
0000
0010
0001
0010
0100
0010
0001
,  // measure 69
1000
0000
0001
0000
0100
0010
0000
0100
0001
0000
0010
0100
0000
0010
0001
0000
,  // measure 70
1000
0000
0001
0100
0000
0100
0000
0100
0010
0000
0100
0000
0010
0000
0000
0000
,  // measure 71
0100
0000
0010
0000
1000
0010
0000
0100
0001
0000
0010
0100
0000
0010
0001
0000
,  // measure 72
1000
0000
0001
0000
0100
0001
0000
0010
0100
0000
0010
0001
0010
0100
0010
0001
,  // measure 73
1000
0000
0001
0000
0100
0001
0000
0010
0100
0000
0010
0001
0000
0010
0100
0000
,  // measure 74
0010
0000
0001
1000
0000
1010
0000
1000
0001
0000
0101
0000
1001
0000
0000
0000
,  // measure 75
1001
0000
0010
0100
0000
0110
0000
0100
0001
0000
1010
0000
1001
0000
0000
0000
,  // measure 76
1000
0100
1000
0000
0100
0000
0010
0001
0000
0000
0010
0000
0001
0000
0100
0000
,  // measure 77
0000
0010
0100
0001
1000
0100
1000
0000
,  // measure 78
0100
0010
0100
0000
0010
0000
0001
0100
0000
0000
0010
0000
0100
0000
0001
0000
,  // measure 79
0000
1000
0001
0010
0000
0100
0000
0010
,  // measure 80
0001
0100
0001
0000
0100
0000
0010
1000
0000
0000
0010
0000
0100
0000
0001
0000
,  // measure 81
0000
1000
0100
0010
0011
1100
0011
0000
,  // measure 82
0001
0100
0001
0000
0100
0000
0010
1000
0000
0000
0010
0000
0100
0000
0001
0000
,  // measure 83
0000
1000
0100
0001
0000
0001
0100
1000
,  // measure 84
0100
0010
0001
0000
0001
0000
0010
0100
0000
0000
0010
0000
0001
0000
1000
0000
,  // measure 85
0000
0001
0010
0100
1100
0011
1100
0000
,  // measure 86
0100
0010
0001
0000
0100
0000
0010
1000
0000
0000
0010
0000
0100
0000
0001
0000
,  // measure 87
0000
0000
1000
0000
0010
0000
0010
0000
0100
0000
0001
0000
0010
0100
0010
0000
,  // measure 88
0001
0100
0010
0000
0100
0000
0010
1000
0000
0000
0100
0000
0010
0000
0001
0000
,  // measure 89
0000
0010
0001
0100
0110
0110
0110
0000
,  // measure 90
0100
0010
1000
0000
0001
0000
0010
0100
0000
0000
0010
0000
0001
0000
1000
0000
,  // measure 91
0000
0001
0100
2000
0000
3100
0010
2000
,  // measure 92
0000
3010
0100
0002
0000
0013
0100
0010
,  // measure 93
2002
0000
0000
0000
,  // measure 94
3003
0000
0000
0000
;
