#TITLE:TOGAKUSHI (Alternative);
#SUBTITLE:;
#ARTIST:SETUP;
#TITLETRANSLIT:;
#SUBTITLETRANSLIT:;
#ARTISTTRANSLIT:;
#GENRE:;
#CREDIT:;
#BANNER:TOGAKUSHI.png;
#BACKGROUND:TOGAKUSHI-bg.png;
#LYRICSPATH:;
#CDTITLE:cdtitle.png;
#MUSIC:TOGAKUSHI.ogg;
#OFFSET:0.222000;
#SAMPLESTART:32.937893;
#SAMPLELENGTH:12.631580;
#SELECTABLE:YES;
#BPMS:0.000000=152.000000
,116.000000=76.000000
,124.000000=152.000000
;
#STOPS:
;
#BGCHANGES:;
#KEYSOUNDS:;
#ATTACKS:;

//---------------dance-single - ----------------
#NOTES:
     dance-single:
     :
     Challenge:
     13:
     0.554330,0.760409,0.453115,0.329538,0.222438,471.000000,416.000000,55.000000,40.000000,0.000000,0.000000,0.554330,0.760409,0.453115,0.329538,0.222438,471.000000,416.000000,55.000000,40.000000,0.000000,0.000000:
// measure 0
0000
0000
0000
0000
,  // measure 1
0000
0000
0000
0000
,  // measure 2
0000
0000
0000
0000
,  // measure 3
0000
0000
0000
0000
,  // measure 4
0000
0000
0000
0000
,  // measure 5
1100
0000
0000
0001
0010
0000
0001
0000
0200
0000
0000
0000
0310
0000
0000
0000
,  // measure 6
1010
0000
0000
0001
0100
0000
0001
0000
0020
0000
0000
0000
0130
0000
0000
0000
,  // measure 7
0011
0000
0000
0100
1000
0000
0001
0000
0200
0000
0000
0000
0310
0000
0000
0000
,  // measure 8
1000
0001
0010
1000
0010
0100
0010
0001
,  // measure 9
1001
0000
0000
0010
1000
0000
0001
0000
0020
0000
0000
0000
0130
0000
0000
0000
,  // measure 10
1100
0000
0000
0010
0001
0000
0100
0000
0020
0000
0000
0000
1030
0000
0000
0000
,  // measure 11
0101
0000
0000
0001
0010
0000
0001
0000
2000
0000
0000
0000
3100
0000
0000
0000
,  // measure 12
1000
0000
0001
0000
1000
0000
0001
0000
1000
0000
0001
0000
1000
0001
1000
0001
,  // measure 13
1000
0100
1000
0100
1000
0100
1000
0100
,  // measure 14
1000
0100
0010
0001
0010
0100
0010
0001
,  // measure 15
0100
0001
0100
0001
0100
0001
0100
0001
,  // measure 16
0100
0010
1000
0001
0010
1000
0010
0100
,  // measure 17
1000
1000
0100
1000
0010
0100
0001
0010
,  // measure 18
0100
0000
0100
0000
0010
0000
0001
0000
1000
0001
0000
0001
1000
0000
0100
0000
,  // measure 19
0010
0000
0001
0000
0100
0000
0010
0000
1000
0001
1000
0001
0100
0010
0100
0010
,  // measure 20
1000
0000
0001
0100
1000
0000
0010
0000
0001
0010
1000
0000
0101
0000
0000
0000
,  // measure 21
1000
0000
0000
0001
0010
0000
0001
0000
0200
0000
0000
0000
0310
0000
0000
0000
,  // measure 22
0100
0000
0000
0010
1000
0000
0100
0000
0020
0000
0000
0000
0031
0000
0000
0000
,  // measure 23
1000
0000
0000
0001
1000
0000
0010
0000
2000
0000
0000
0000
3010
0000
0000
0000
,  // measure 24
0100
0001
1000
0100
1000
0001
0010
0100
,  // measure 25
1000
1000
0010
0100
0001
0001
0010
0100
,  // measure 26
0010
0000
0010
0000
0001
0000
0100
0000
0010
1000
0000
0001
0100
0000
0001
0000
,  // measure 27
1000
0000
0100
0000
1000
0000
0010
0000
0100
0001
0100
0001
0100
0001
0100
0001
,  // measure 28
0100
0000
0010
0000
1000
0000
0001
0000
0010
0100
0010
0100
0010
0100
0010
4000
,  // measure 29
0004
0000
0000
0000
,  // measure 30
0000
0000
0000
0000
0000
0000
0000
3003
,  // measure 31
0001
0200
0000
1300
0200
0000
0301
0200
,  // measure 32
0010
0010
0000
0001
0001
0000
0010
0310
,  // measure 33
1000
0020
0000
1030
0200
0000
1300
0020
,  // measure 34
0100
0100
0000
1000
1000
0000
0100
0230
,  // measure 35
0000
0000
0000
0000
,  // measure 36
0302
0000
0000
0000
0000
0000
0000
0000
0000
0000
0000
0000
0000
0000
1003
0100
,  // measure 37
0010
0110
1001
0110
,  // measure 38
1001
0000
0000
0000
1001
0000
0000
1000
0001
0000
0001
0000
1001
0000
0000
0000
,  // measure 39
1000
0010
0001
0020
0000
0130
0001
0020
,  // measure 40
0100
0100
0100
0230
0000
0310
0001
1000
,  // measure 41
0001
0100
1000
0200
0000
0310
1000
0002
,  // measure 42
0010
0010
0010
0023
0000
0130
0010
0002
,  // measure 43
0000
0000
0000
0000
,  // measure 44
0000
0000
0000
0000
0000
0000
0000
0000
0000
0000
0000
0000
0000
0000
0103
0010
,  // measure 45
1000
0011
1010
0011
,  // measure 46
1001
0000
0000
0000
1001
0000
0000
0001
1000
0000
1000
0000
1001
0000
0000
0000
,  // measure 47
0101
0011
0101
0011
,  // measure 48
0101
0000
0000
0000
0011
0000
0000
0001
1000
0000
1000
0000
0002
0000
0000
1003
,  // measure 49
0100
0000
0000
0000
1010
0000
0000
0000
1100
0000
0000
0000
1010
0000
0000
1000
,  // measure 50
0100
0000
0000
0000
1010
0000
1000
0010
1000
0000
0001
0000
0200
0000
0000
0310
,  // measure 51
1000
0000
0000
0000
0001
0000
1000
0001
1000
0000
0001
0000
0200
0000
0000
0000
,  // measure 52
0301
0000
0000
0000
1000
0000
0001
1000
0001
0000
1000
0000
0020
0000
0000
0000
,  // measure 53
1030
0000
0100
0000
0001
0000
0100
0000
2000
0000
0000
0000
3000
0000
0002
2000
,  // measure 54
3000
0003
0000
0000
0000
0000
1001
0000
,  // measure 55
0001
0200
0000
1300
0200
0000
0310
2000
,  // measure 56
0100
0100
0000
0010
0010
0000
0001
3001
,  // measure 57
0100
0020
0000
1030
0020
0000
0130
0002
,  // measure 58
0100
0100
0000
1000
1000
0000
0100
0203
,  // measure 59
0010
0001
0010
0001
,  // measure 60
0320
0000
0000
0000
1000
0000
0000
0000
0100
0000
0000
0000
1030
0000
0100
0010
,  // measure 61
1000
1100
0101
1100
,  // measure 62
1001
0000
0000
0000
1001
0000
0000
0001
1000
0000
1000
0000
1001
0000
0000
0000
,  // measure 63
1010
1100
1010
1100
,  // measure 64
1010
0000
0000
0000
1100
0000
0000
1000
0001
0000
0001
0000
1000
0000
0000
0000
,  // measure 65
0101
0000
0000
0000
0011
0000
0000
0000
0101
0000
0000
0000
0011
0000
0000
0100
,  // measure 66
0001
0000
0000
0000
0011
0000
0010
0100
1000
0000
0001
0000
1000
0000
0000
0000
,  // measure 67
1001
0000
0000
0000
0110
0000
1000
0001
1000
0000
0001
0000
1000
0000
0000
0000
,  // measure 68
0110
0000
0000
0000
1001
0000
0001
1000
0001
0000
1000
0000
0001
0000
0000
0000
,  // measure 69
1001
0000
0001
0000
1000
0000
0001
1000
1001
0000
0001
0000
1000
0000
0001
1000
,  // measure 70
1001
0000
1000
0001
1001
0000
0001
1000
0010
0100
0010
0100
0020
0000
0000
0000
,  // measure 71
0030
0000
0000
0000
;
