#VERSION:0.83;
#TITLE:Sweet Anarchy (Alternative);
#SUBTITLE:;
#ARTIST:Give Me a Kiss;
#TITLETRANSLIT:;
#SUBTITLETRANSLIT:;
#ARTISTTRANSLIT:;
#GENRE:;
#ORIGIN:;
#CREDIT:;
#BANNER:Sweet Anarchy.png;
#BACKGROUND:background.png;
#PREVIEWVID:;
#JACKET:Sweet Anarchy-jacket.png;
#CDIMAGE:;
#DISCIMAGE:;
#LYRICSPATH:;
#CDTITLE:;
#MUSIC:Sweet Anarchy.ogg;
#OFFSET:0.010000;
#SAMPLESTART:44.436169;
#SAMPLELENGTH:14.819386;
#SELECTABLE:YES;
#BPMS:0.000=129.560,
24.000=32.390,
24.125=64.780,
25.000=129.560,
174.000=64.780,
186.000=129.560;
#STOPS:25.000=2.200,
102.000=0.232,
102.500=0.232,
103.000=0.232,
103.500=0.232,
116.000=0.232,
116.250=0.232,
116.500=0.232,
116.750=0.232,
222.500=1.389;
#DELAYS:;
#WARPS:;
#TIMESIGNATURES:0.000=4=4;
#TICKCOUNTS:0.000=4;
#COMBOS:0.000=1;
#SPEEDS:0.000=1.000=0.000=0;
#SCROLLS:0.000=1.000;
#FAKES:;
#LABELS:0.000=Song Start;
#BGCHANGES:;
#KEYSOUNDS:;
#ATTACKS:
;

//---------------dance-single - ----------------
#NOTEDATA:;
#CHARTNAME:;
#STEPSTYPE:dance-single;
#DESCRIPTION:;
#CHARTSTYLE:;
#DIFFICULTY:Challenge;
#METER:13;
#RADARVALUES:0.584823,0.714606,1.185669,0.040056,0.196276,511.000000,363.000000,148.000000,5.000000,0.000000,0.000000,0.000000,0.000000,0.000000,0.584823,0.714606,1.185669,0.040056,0.196276,511.000000,363.000000,148.000000,5.000000,0.000000,0.000000,0.000000,0.000000,0.000000;
#CREDIT:;
#NOTES:
// measure 0
0000
0000
0000
0000
,  // measure 1
0000
0000
0000
0000
,  // measure 2
0000
0000
0000
0000
,  // measure 3
0000
0000
0000
0000
,  // measure 4
1001
0001
0001
1001
1000
1000
1001
0001
,  // measure 5
0001
1001
1000
1000
1001
0010
1001
0100
,  // measure 6
2002
3003
1010
0011
,  // measure 7
1100
0000
0101
0000
1001
0000
0001
0001
,  // measure 8
1000
1000
0001
0001
1001
0000
1010
0000
,  // measure 9
0101
0000
0011
0000
0110
0000
0100
0100
,  // measure 10
0000
0000
0100
0100
1100
0000
0110
0000
,  // measure 11
0011
0000
0101
0000
1001
0000
1000
1000
,  // measure 12
0010
0010
0100
0100
0001
0001
0001
0001
,  // measure 13
0001
0001
0001
0001
0001
0001
0001
0001
,  // measure 14
0001
0001
1001
0010
1001
0000
1010
0000
,  // measure 15
0101
0000
0000
0011
0000
0000
0110
0000
0000
0100
1000
0010
,  // measure 16
0001
0010
0100
0001
0010
1000
1010
0000
0000
0011
0010
0010
,  // measure 17
0010
0000
0010
0000
0010
0000
0010
0000
0000
0000
0000
0000
1100
0000
0000
0000
0000
0000
0001
0000
0000
0001
0000
0000
,  // measure 18
0000
0000
0000
0000
0000
0000
0001
0000
0000
0001
0000
0000
1001
0000
0000
0000
0000
0000
1000
0000
1000
0000
1000
0000
,  // measure 19
1000
1000
1000
1001
0000
0000
0110
0000
0000
0100
1000
0100
,  // measure 20
0001
0000
0010
0000
1000
0000
0010
0000
0001
0000
0010
0000
0110
0000
0000
0000
0000
0000
1000
0000
0000
1001
0000
0000
,  // measure 21
0000
0000
1000
0000
0101
0000
0000
0000
1010
0000
0001
0000
1100
0000
0001
1000
,  // measure 22
0100
0010
0001
0000
0011
0000
1000
0000
0110
0000
0110
0000
0100
0000
0010
0000
,  // measure 23
1000
0001
0011
0000
1100
1100
1000
0001
,  // measure 24
0100
0001
0101
0000
1010
1010
1000
0001
,  // measure 25
0010
0100
1100
0000
1001
0110
1001
0110
,  // measure 26
1001
1001
1000
0001
0010
1000
0011
0000
,  // measure 27
1100
1100
1000
0100
0001
0100
0110
0000
,  // measure 28
0011
0011
0001
0010
1000
0010
0100
0000
,  // measure 29
1001
0010
0110
1000
1001
0000
0000
0000
0101
0000
0101
0000
0001
0000
0010
0000
,  // measure 30
1000
0000
0000
0010
0000
0000
0110
0000
0000
0000
0000
0000
1100
0000
0000
1100
0000
0000
0001
0000
0001
0000
1000
0000
,  // measure 31
0001
0000
0001
0000
1000
0000
0001
0000
0000
0000
0000
0000
1010
0000
0000
1100
0000
0000
0010
0000
0010
0000
0110
0000
,  // measure 32
0100
0000
0100
0000
0110
0000
0100
0000
0100
0000
0110
0000
1001
0000
0000
0000
0000
0000
1000
0000
0000
0011
0000
0000
,  // measure 33
0000
0000
1000
0000
0001
1000
0100
0000
0011
0000
0000
0000
0100
0000
0011
0000
,  // measure 34
0000
0000
0100
0000
1000
0010
0100
0000
0101
0000
0000
0000
0010
0000
1001
0000
,  // measure 35
0000
0000
0001
0000
0010
0100
1000
0000
1001
0000
1000
0000
1000
0000
1001
0000
,  // measure 36
1000
1000
1001
1000
1000
1001
1000
1000
,  // measure 37
1001
1000
1001
1001
1001
0001
0001
1001
,  // measure 38
0001
0001
1001
0001
0001
1001
0001
0001
,  // measure 39
1001
0001
1001
1001
0110
0100
0100
0110
,  // measure 40
0100
0100
0110
0100
0100
0110
0100
0100
,  // measure 41
0110
0100
0110
0110
0010
0010
0010
0010
,  // measure 42
0010
0010
0010
0010
0010
0010
0010
0010
,  // measure 43
0010
0000
0010
0000
0000
0000
0000
0000
1002
0000
1000
0000
1000
0000
1003
0101
,  // measure 44
1010
0101
0000
0000
0000
0000
0000
0000
2001
0000
0001
0000
0001
0000
3001
1010
,  // measure 45
0101
1010
0000
0000
0000
0000
0000
0000
0210
0000
0001
0000
0010
0000
0301
0011
,  // measure 46
0110
1100
0000
0000
0000
0000
0000
0000
1001
0000
0010
0000
1001
0000
0100
0000
,  // measure 47
1001
0000
0000
0010
0000
0000
1001
0000
0000
0100
0000
0000
1001
0000
1001
0000
0010
0000
1001
0000
1001
0000
0100
0000
,  // measure 48
1001
1001
0110
1001
0000
0000
1010
0000
0000
1100
0000
0000
,  // measure 49
0011
0000
0110
0000
1100
1100
0100
0001
,  // measure 50
0100
1000
0010
0000
1010
0000
0011
0000
,  // measure 51
0110
0000
1100
0000
1001
1001
0001
0100
,  // measure 52
1000
0100
0010
0000
1010
0000
0101
0000
,  // measure 53
0011
0000
0110
0000
1100
0100
0001
0100
,  // measure 54
0010
0001
1000
0000
0110
0000
1001
0000
,  // measure 55
0110
1001
0110
1001
;
