#TITLE:Spooky (Alternative);
#SUBTITLE:;
#ARTIST:good-cool;
#TITLETRANSLIT:;
#SUBTITLETRANSLIT:;
#ARTISTTRANSLIT:;
#GENRE:;
#CREDIT:;
#BANNER:Spooky.png;
#BACKGROUND:Spooky-bg.png;
#LYRICSPATH:;
#CDTITLE:;
#MUSIC:Spooky.mp3;
#OFFSET:-5.495000;
#SAMPLESTART:87.756996;
#SAMPLELENGTH:12.000000;
#SELECTABLE:YES;
#DISPLAYBPM:140.000000;
#BPMS:0.000000=140.000000
,255.500000=746.666992
,297.500000=140.003998
;
#STOPS:
;
#BGCHANGES:;
#KEYSOUNDS:;
#ATTACKS:;

//---------------dance-single - ----------------
#NOTES:
     dance-single:
     :
     Challenge:
     12:
     0.496817,0.611061,0.303480,0.377300,0.184549,424.000000,387.000000,37.000000,46.000000,0.000000,0.000000,0.496817,0.611061,0.303480,0.377300,0.184549,424.000000,387.000000,37.000000,46.000000,0.000000,0.000000:
// measure 0
1020
0230
0302
0023
,  // measure 1
0230
0000
1000
0000
0310
0000
0100
0010
,  // measure 2
0001
1000
1100
1001
0001
0100
0001
1000
,  // measure 3
0100
0010
0010
0100
0010
0010
0010
0100
,  // measure 4
2000
0000
0010
0000
0001
0000
3001
0100
,  // measure 5
0020
0000
1000
0000
0130
0000
0010
1000
,  // measure 6
0001
0010
0110
1100
1000
0010
0100
0001
,  // measure 7
1000
0010
1000
0001
0010
0010
0001
0010
,  // measure 8
0100
1000
0001
0200
0000
0310
1000
0002
,  // measure 9
0100
0000
1000
0000
0103
0020
0000
0000
,  // measure 10
0100
0000
0130
0000
0010
0000
1000
0000
0001
0000
0000
0001
0000
0000
0001
0000
,  // measure 11
1001
0000
0000
0000
0110
0000
0000
0100
0001
0000
0000
0001
0000
0000
0001
0000
,  // measure 12
0010
0100
0010
0002
0000
0103
0010
2000
,  // measure 13
0010
0000
0001
0000
3010
0200
0000
0000
,  // measure 14
0010
0000
0310
0000
1000
0000
0001
0000
0010
0000
0000
0100
0000
0000
1000
0000
,  // measure 15
1001
0110
1001
0110
,  // measure 16
1001
0000
0000
1000
0000
0000
0010
0000
1000
0000
0000
0001
0000
0000
0010
0000
,  // measure 17
0100
0000
0000
0010
0000
0000
0001
0000
0010
0000
0000
0100
0000
0000
1000
0000
,  // measure 18
1100
0000
0000
0100
0000
0000
1000
0000
0010
0000
0000
0100
0000
0000
1001
0000
,  // measure 19
1001
0000
0000
0001
0000
0000
0100
0000
0010
1000
0000
1000
0010
0000
0100
0000
,  // measure 20
0100
0000
0000
0001
0000
0000
0010
0000
0100
0000
0000
0010
0000
0000
0001
0000
,  // measure 21
1000
0000
0000
0001
0000
0000
0100
0000
1000
0000
0000
0100
0000
0000
0010
0000
,  // measure 22
1000
0000
0000
0001
0000
0000
0010
0000
0100
0000
0000
0010
0000
0000
0001
0000
,  // measure 23
1000
0000
0000
0010
0000
0000
0001
0000
0010
0000
0000
0100
0000
0000
0010
0000
,  // measure 24
1000
0100
0001
0100
0010
0001
0010
0100
,  // measure 25
2000
0010
0001
3100
,  // measure 26
1000
0001
0100
0000
0010
1000
0001
0000
,  // measure 27
1000
0100
0010
0001
1000
0100
0010
0001
,  // measure 28
0001
0010
1000
0010
0100
1000
0100
0010
,  // measure 29
0002
0000
0100
0000
1000
0000
0013
0100
,  // measure 30
0110
0000
0010
0001
0100
0000
0010
1000
,  // measure 31
0001
0000
1000
0000
0001
0100
0000
0010
0100
0001
0100
0000
0010
0000
1000
0000
,  // measure 32
0001
1000
0100
0001
0200
0000
0310
0001
,  // measure 33
2000
0000
3100
1000
0020
0000
0230
0000
,  // measure 34
0301
1002
0000
2003
,  // measure 35
3000
0000
0000
0000
0001
0200
0000
0000
0000
0000
0010
0000
0000
0000
0310
0000
,  // measure 36
1001
0001
1000
0100
0002
0000
0103
1000
,  // measure 37
0020
0000
0130
0001
2000
0000
3002
0103
,  // measure 38
0101
0000
0010
1000
1010
0000
1000
0100
,  // measure 39
1100
0000
0000
0000
0101
0000
0000
0000
0001
0010
0000
0010
0001
0000
1000
0000
,  // measure 40
0001
0000
0000
0000
0100
0000
0000
0000
0010
0000
1000
0010
0000
0010
0100
0000
,  // measure 41
0010
0000
0000
0000
1000
0000
0000
0000
0100
0000
1000
0100
0000
0100
0010
0000
,  // measure 42
0001
0000
0000
0000
0010
0000
0000
0000
0100
0000
0010
0001
0000
0001
1000
0000
,  // measure 43
0001
0100
0001
0000
0100
0000
0010
0000
0000
0010
1000
0000
0000
0000
0010
0000
,  // measure 44
1000
0000
0000
0000
0001
0000
0000
0000
0100
0000
0010
1000
0000
0100
0010
0000
,  // measure 45
0100
0000
0000
0000
1000
0000
0000
0000
0001
0000
0100
0010
0000
1000
0100
0000
,  // measure 46
0010
0000
0000
0000
0001
0000
0000
0000
0100
0000
0010
1000
0000
0001
0100
0000
,  // measure 47
0001
0000
1000
0000
0010
0000
0100
0000
0001
1000
0001
1000
0001
1000
0001
1000
,  // measure 48
0002
0203
2300
3200
,  // measure 49
0320
0200
0000
0300
,  // measure 50
0130
0010
1001
1001
0001
0000
1000
0000
,  // measure 51
0001
0010
0200
0000
0010
0310
0001
1000
,  // measure 52
2001
0000
0010
0000
0001
0000
3010
0100
,  // measure 53
0002
0020
0000
0030
,  // measure 54
1003
0100
0110
1100
1000
0000
0010
0000
,  // measure 55
0100
0010
0100
0001
0010
0100
0010
0100
,  // measure 56
2000
3200
0320
0032
,  // measure 57
0203
0020
0000
0030
,  // measure 58
0301
1000
1001
0101
0001
0010
0100
1000
,  // measure 59
1100
0000
0101
0000
1001
0001
1000
0010
,  // measure 60
0200
0000
0010
0310
0100
0000
0010
1000
,  // measure 61
0002
2000
0000
3000
,  // measure 62
0103
0001
0011
1100
0100
0000
1000
0000
,  // measure 63
1001
0110
1001
0000
,  // measure 64
0000
0000
0000
0000
,  // measure 65
0000
0000
0000
0000
,  // measure 66
0000
0000
0000
0000
,  // measure 67
0000
0000
0000
0000
,  // measure 68
0000
0000
0000
0000
,  // measure 69
0000
0000
0000
0000
,  // measure 70
0000
0000
0000
0000
,  // measure 71
0000
0000
0000
0000
,  // measure 72
0000
0000
0000
0000
,  // measure 73
0000
0000
0000
0000
,  // measure 74
0000
0000
0000
0020
0030
0000
0000
0000
;
