#VERSION:0.83;
#TITLE:Spin the disc (Alternative);
#SUBTITLE:;
#ARTIST:good-cool;
#TITLETRANSLIT:;
#SUBTITLETRANSLIT:;
#ARTISTTRANSLIT:;
#GENRE:;
#ORIGIN:;
#CREDIT:;
#BANNER:Spin the disc.png;
#BACKGROUND:Spin the disc-bg.png;
#PREVIEWVID:;
#JACKET:Spin the disc-jacket.png;
#CDIMAGE:;
#DISCIMAGE:Spin the disc.png;
#LYRICSPATH:;
#CDTITLE:cdtitle.png;
#MUSIC:Spin the disc.ogg;
#OFFSET:0.000000;
#SAMPLESTART:75.690002;
#SAMPLELENGTH:15.000000;
#SELECTABLE:YES;
#DISPLAYBPM:130.000000;
#BPMS:0.000=129.201,
4.000=130.006,
64.000=65.003,
65.000=130.006;
#STOPS:159.000=0.462,
159.500=0.462;
#DELAYS:;
#WARPS:;
#TIMESIGNATURES:0.000=4=4;
#TICKCOUNTS:0.000=4;
#COMBOS:0.000=1;
#SPEEDS:0.000=1.000=0.000=0;
#SCROLLS:0.000=1.000;
#FAKES:;
#LABELS:0.000=Song Start;
#BGCHANGES:;
#KEYSOUNDS:;
#ATTACKS:
;

//---------------dance-single - ----------------
#NOTEDATA:;
#CHARTNAME:;
#STEPSTYPE:dance-single;
#DESCRIPTION:;
#CHARTSTYLE:;
#DIFFICULTY:Challenge;
#METER:13;
#RADARVALUES:0.574411,0.666934,0.270836,0.364587,0.453130,386.000000,360.000000,26.000000,35.000000,0.000000,0.000000,10.000000,0.000000,0.000000,0.574411,0.666934,0.270836,0.364587,0.453130,386.000000,360.000000,26.000000,35.000000,0.000000,0.000000,10.000000,0.000000,0.000000;
#CREDIT:Pandemonium X;
#DISPLAYBPM:130.000000;
#NOTES:
// measure 0
0000
0000
0000
0000
,  // measure 1
1100
0100
1000
0010
0100
0001
0010
0100
,  // measure 2
4000
0004
0000
0000
0000
0000
0000
0000
0000
0000
0000
0000
0000
0000
3003
0000
,  // measure 3
0101
0001
0010
0001
1000
0100
1000
0010
,  // measure 4
0400
0004
0000
0000
0000
0000
0000
0000
0000
0000
0000
0000
0000
0000
0303
0000
,  // measure 5
1010
1000
0100
1000
0001
0100
0010
1000
,  // measure 6
0400
0040
0000
0000
0000
0000
0000
0000
0000
0000
0000
0000
0000
0000
0330
0000
,  // measure 7
1001
0001
0010
0001
1000
0010
0100
0001
,  // measure 8
0010
0100
0010
0100
1000
0100
1000
0100
0010
0001
0010
0001
0010
0100
1000
0001
,  // measure 9
0200
0000
0000
0000
0301
0000
1000
0000
0200
0000
0000
0310
0000
0000
0010
0000
,  // measure 10
0002
0000
0000
0000
0013
0000
0001
0000
2000
0000
0000
3001
0000
0000
1000
0000
,  // measure 11
0020
0000
0000
0000
0130
0000
0001
0000
0020
0000
0000
0130
0000
0000
0100
0000
,  // measure 12
0020
0000
0000
0000
0130
0000
1000
0000
0002
0000
0000
1003
0000
0000
0001
0000
,  // measure 13
0201
0000
0000
0000
0310
0000
1000
0000
0200
0000
0000
0310
0000
0000
0010
0000
,  // measure 14
0200
0000
0000
0000
1300
0000
0001
0000
0020
0000
0000
0130
0000
0000
1000
0000
,  // measure 15
0200
0000
0000
0000
0310
0000
0001
0000
2000
0000
0000
3001
0000
0000
0001
0000
,  // measure 16
0220
0000
0000
0000
0000
0000
0330
0000
0000
0000
0000
0000
0001
0000
0000
1000
0000
0000
0020
0000
0000
0000
0000
0000
1030
0000
0000
0000
1000
0000
0001
0000
0000
0000
0001
0000
1000
0000
0000
0000
0000
0000
0000
0000
0000
0000
0000
0000
,  // measure 17
0100
0000
1000
0000
0010
0000
0000
0010
0100
0000
0002
0000
0000
0000
0003
0000
,  // measure 18
1001
0000
0000
0000
0000
0100
0110
0000
,  // measure 19
0001
0000
0100
0000
0010
0000
1000
0000
0001
0000
0000
0000
1100
0000
0000
0110
,  // measure 20
0000
0000
0011
0000
0000
1100
0000
0000
2002
0000
0000
0000
3003
0000
0000
0000
,  // measure 21
0001
0000
0100
0000
0010
0000
1000
0100
0010
0000
0200
0000
0000
0000
0300
0000
,  // measure 22
1001
0000
0000
0000
0000
0010
0110
0000
,  // measure 23
1000
0001
0010
0001
1000
0100
1010
1100
,  // measure 24
1010
0000
0000
0101
0000
0001
0010
0000
0400
4000
0000
3300
0002
0000
0000
0013
,  // measure 25
0100
0000
1000
0000
0002
0000
0000
0103
0001
0000
0010
0000
0100
0000
0000
1000
,  // measure 26
0020
1000
0100
1030
,  // measure 27
0001
0010
1000
0010
0100
0010
0001
0100
,  // measure 28
0010
0000
1000
0000
0001
0000
2000
0000
3200
0000
0301
0000
1200
0000
0000
0310
,  // measure 29
0100
0000
1000
0000
0002
0000
0000
0103
0001
0000
0010
0000
0200
0000
0000
0310
,  // measure 30
0002
0100
0010
1003
,  // measure 31
0001
0100
1000
0100
0010
2000
0000
3010
,  // measure 32
0100
0000
0001
0000
0010
0010
0000
0010
0000
0000
0010
0000
1001
0000
0001
0000
,  // measure 33
0100
0000
0010
0000
1000
0000
0010
1000
0000
1000
0010
0000
0010
0000
0100
0000
,  // measure 34
0001
0000
0010
0000
0100
0000
1000
0100
0000
0100
0010
0000
0100
0000
0010
0000
,  // measure 35
0001
0000
0100
0000
0010
0000
1000
0001
0000
0001
1000
0000
0001
0200
0000
0310
,  // measure 36
1000
0200
0000
0310
0100
2000
0000
3100
0010
0002
0000
0013
0100
0000
0010
0000
,  // measure 37
0001
0000
0100
0000
0010
0000
1000
0001
0000
0001
1000
0000
1000
0000
0100
0000
,  // measure 38
1000
0000
0010
0000
0100
0000
0001
0010
0000
0010
0100
0000
0010
0000
0001
0000
,  // measure 39
1000
0000
0010
0000
0100
0000
0010
1000
0000
0100
0010
0000
1001
0000
0110
0000
,  // measure 40
0001
1000
0001
0000
0110
0000
0100
0000
0001
0010
0001
0010
0001
0000
1000
0001
,  // measure 41
0000
0000
0100
0000
0010
0000
1000
0000
0100
0010
0100
0010
0100
0000
1000
0001
,  // measure 42
0000
0000
0000
0000
0100
0010
1000
0000
0001
1000
0001
1000
0001
0000
1000
0100
,  // measure 43
0000
0000
0010
0000
0100
0000
1000
0000
0001
0100
0001
0100
0001
0000
0100
0010
,  // measure 44
0000
0000
1010
0000
1001
0000
0001
0000
1000
0010
1000
0010
1000
0000
0001
0010
,  // measure 45
0000
0000
0100
0000
0010
0000
0001
0000
0100
0010
0100
0010
0100
0000
0010
1000
,  // measure 46
0000
0000
0000
0000
0100
1000
0100
0000
1000
0010
1000
0010
1000
0000
0010
0100
,  // measure 47
0000
0000
0001
0000
0010
0000
0100
0000
0010
0001
0010
0001
0010
0100
1000
0010
,  // measure 48
0100
0001
0010
0100
4000
0004
0000
0000
0000
0000
0000
0000
0000
0000
0000
0000
,  // measure 49
0000
3003
0000
0000
;
