#VERSION:0.83;
#TITLE:Sound Without A Name (Alternative);
#SUBTITLE:;
#ARTIST:Darren Styles;
#TITLETRANSLIT:;
#SUBTITLETRANSLIT:;
#ARTISTTRANSLIT:;
#GENRE:;
#ORIGIN:;
#CREDIT:;
#BANNER:Sound Without A Name.png;
#BACKGROUND:Sound Without A Name-bg.png;
#PREVIEWVID:;
#JACKET:Sound Without A Name-jacket.png;
#CDIMAGE:;
#DISCIMAGE:;
#LYRICSPATH:;
#CDTITLE:cdtitle.png;
#MUSIC:Sound Without A Name.ogg;
#OFFSET:1.411997;
#SAMPLESTART:93.187241;
#SAMPLELENGTH:22.588234;
#SELECTABLE:YES;
#BPMS:0.000=85.000,
38.000=170.000,
66.000=85.000,
68.000=170.000,
132.000=85.000,
148.000=170.000,
276.000=85.000;
#STOPS:;
#DELAYS:;
#WARPS:;
#TIMESIGNATURES:0.000=4=4;
#TICKCOUNTS:0.000=4;
#COMBOS:0.000=1;
#SPEEDS:0.000=1.000=0.000=0;
#SCROLLS:0.000=1.000;
#FAKES:;
#LABELS:0.000=Song Start;
#BGCHANGES:;
#KEYSOUNDS:;
#ATTACKS:
;

//---------------dance-single - ----------------
#NOTEDATA:;
#CHARTNAME:;
#STEPSTYPE:dance-single;
#DESCRIPTION:;
#CHARTSTYLE:;
#DIFFICULTY:Challenge;
#METER:15;
#RADARVALUES:0.673860,0.924657,0.354784,0.258025,0.608778,585.000000,541.000000,44.000000,32.000000,0.000000,0.000000,0.000000,0.000000,0.000000,0.673860,0.924657,0.354784,0.258025,0.608778,585.000000,541.000000,44.000000,32.000000,0.000000,0.000000,0.000000,0.000000,0.000000;
#CREDIT:Pandemonium X;
#NOTES:
// measure 0
0000
0000
0000
0000
,  // measure 1
0000
0000
0000
0000
0000
0000
0000
0000
1001
0000
0000
0000
0000
0000
0000
0001
,  // measure 2
0200
0000
0000
0300
0010
1000
0000
0100
0000
0020
0000
0000
0000
0030
0000
0100
,  // measure 3
2000
0000
0000
3000
0001
1000
0000
0001
0000
0020
0000
0000
0000
0030
0000
0100
,  // measure 4
0010
0000
0000
0000
0100
1000
0000
0001
0000
2000
0000
0000
0000
3000
0000
0001
,  // measure 5
0100
0000
0001
0010
0000
0001
0000
1000
1001
0000
0000
1010
0000
0000
0000
0001
,  // measure 6
1000
0000
0010
0000
0010
1000
0000
0000
0101
0000
0000
0011
0000
0000
0000
0010
,  // measure 7
0100
0000
0010
0000
0010
0100
0000
0000
0110
0000
0000
0011
0000
0000
0000
0001
,  // measure 8
0100
0000
0001
0000
0001
1000
0000
0000
1001
0000
0000
0101
0000
0000
0000
0000
,  // measure 9
1001
0000
0000
0011
0000
0000
0000
0000
0001
0000
1000
0000
0001
1000
0001
0000
,  // measure 10
0100
0000
0000
0000
0010
0000
0000
1000
0100
0000
0000
0000
0010
0000
0000
0000
,  // measure 11
0001
0000
0100
0000
0010
0000
0000
1000
0001
0000
0000
0000
0010
0000
0100
0000
,  // measure 12
1000
0000
0000
0000
0100
0000
0000
0010
0001
0000
0000
0000
0100
0000
0000
0000
,  // measure 13
0010
0000
1000
0001
0010
0000
0010
0001
1000
0000
0001
0000
1000
0000
0001
0000
,  // measure 14
1000
0001
1000
0001
0100
0010
0100
0010
,  // measure 15
0100
0000
0010
0000
0100
0000
0010
0000
1000
0001
1000
0001
1000
0001
1000
0001
,  // measure 16
1000
0001
1000
0001
1000
0001
1000
0001
2000
0000
0000
3020
0000
0000
0000
0000
,  // measure 17
0130
0000
0001
0010
0110
0000
1100
0000
,  // measure 18
1000
0100
0001
0100
1000
0100
0010
0001
,  // measure 19
0011
0000
0010
0100
1100
0000
1010
0000
,  // measure 20
1000
0010
0001
0010
1000
0010
0100
0010
,  // measure 21
1010
0000
0100
0001
0011
0000
1001
0000
,  // measure 22
0001
0100
1000
0100
0010
0001
0010
1000
,  // measure 23
0110
0000
0001
0010
0110
0000
1001
0000
,  // measure 24
1010
0000
1000
0001
0011
0000
1001
0000
,  // measure 25
1010
0000
1000
0001
0011
0000
0110
0000
,  // measure 26
0100
0001
0100
1000
0100
0010
0001
0010
,  // measure 27
0110
0000
0100
1000
1010
0000
0101
0000
,  // measure 28
0001
0100
1000
0100
0010
1000
0010
0100
,  // measure 29
0101
0000
0001
0010
0110
0000
1100
0000
,  // measure 30
1000
0100
0001
0100
0010
0100
1000
0100
,  // measure 31
0011
0000
0001
0100
0110
0000
1001
0000
,  // measure 32
1010
0000
1000
0001
0011
0000
1001
0000
,  // measure 33
1020
0000
0000
0130
0000
0000
0000
0001
0020
0000
0130
2000
0000
3000
0100
2000
,  // measure 34
0001
0000
0000
3010
0000
0000
0000
0001
0200
0000
0310
2000
0000
0000
3100
0020
,  // measure 35
0001
0000
0000
0130
0000
0000
0000
0010
0001
0000
1000
0200
0000
0000
0310
0001
,  // measure 36
1020
0000
0000
1030
0000
0000
0000
0000
0021
0000
0000
0031
0000
0000
0000
0000
,  // measure 37
2001
0000
0000
3010
0000
0000
0100
0000
0002
0000
0000
0013
0000
0000
0100
0000
,  // measure 38
0020
0000
0000
0031
0000
0000
0010
0000
0100
1000
0100
0000
1000
0000
0001
0000
,  // measure 39
0200
0000
0000
0301
0000
0000
0010
0000
0200
0000
0000
1300
0000
0000
0001
0000
,  // measure 40
2000
0000
0000
3010
0000
0000
0100
0000
0001
0010
0001
0000
0010
0000
0001
0000
,  // measure 41
2000
0000
0000
3001
0000
0000
0100
0000
0002
0000
0000
0013
0000
0000
0100
0000
,  // measure 42
0020
0000
0000
0130
0000
0000
0010
0000
0200
0000
0000
1300
0000
0000
0001
0000
,  // measure 43
0200
0000
0000
0310
0000
0000
1000
0000
0002
0000
0000
0013
0000
0000
0100
0000
,  // measure 44
0020
0000
0000
0031
0000
0000
1000
0000
0200
0000
0000
1300
0000
0000
0001
0000
,  // measure 45
0100
0000
0010
1000
0000
0000
0001
0000
0010
0000
0100
1000
0000
0000
0100
0000
,  // measure 46
0010
0000
0001
1000
0000
0000
0001
0000
0100
0010
1000
0000
0001
0000
0010
0000
,  // measure 47
0100
0000
0010
0001
0000
0000
0010
0000
0100
0000
1000
0010
0000
0000
0100
0000
,  // measure 48
0010
0000
1000
0100
0000
0000
0010
0000
0001
0010
0001
0000
1000
0000
0010
0000
,  // measure 49
0100
0001
0100
0000
0010
0100
0010
0000
1000
0010
1000
0000
0001
0010
0001
0000
,  // measure 50
1000
0100
1000
0000
0001
0100
0001
0000
0100
0010
0100
0000
0001
1000
0001
0000
,  // measure 51
0100
0010
0100
0010
0100
0010
0100
0010
0100
0010
0100
0010
0100
0010
0100
0010
,  // measure 52
1000
0010
0100
0001
1000
0010
0100
0001
1000
0010
0100
0001
1000
0010
0100
0001
,  // measure 53
1000
0000
0100
1000
0000
0100
0010
0000
0001
0000
0010
0100
0000
1000
0010
0000
,  // measure 54
0100
0000
0001
0100
0000
0010
1000
0000
0001
1000
0001
0000
0010
0000
0100
0000
,  // measure 55
0010
0000
0001
0010
0000
0001
0100
0000
0010
0000
1000
0010
0000
0100
0001
0000
,  // measure 56
0010
0000
0100
0010
0000
0100
1000
0000
0001
0100
0001
0000
0100
0000
0010
0000
,  // measure 57
1000
0000
0001
0010
0000
0100
0010
0000
0100
0000
1000
0010
0000
0100
0001
0000
,  // measure 58
0010
0000
0001
0100
0000
0010
1000
0000
0100
0000
0010
0100
0000
0010
0001
0000
,  // measure 59
1000
0000
0001
0100
0000
0010
1000
0000
0100
0000
0010
0100
0000
1000
0010
0000
,  // measure 60
0100
0000
0001
0010
0000
0001
1000
0000
0001
0000
1000
0010
0000
1000
0001
0000
,  // measure 61
0010
0000
0100
1000
0100
0000
1000
0000
0010
0000
0100
0001
0100
0000
0001
0000
,  // measure 62
0010
0000
0100
0010
0100
0000
0010
0000
0001
1000
0001
0000
0100
0000
0001
0000
,  // measure 63
0010
0000
0100
1000
0100
0000
1000
0000
0010
0000
0100
0010
0100
0000
0001
0000
,  // measure 64
0010
0000
0100
0010
0100
0000
0010
0000
0001
1000
0001
0000
0010
0000
0100
0000
,  // measure 65
1000
0000
0001
0100
0001
0000
0010
0000
0100
0000
1000
0100
1000
0000
0100
0000
,  // measure 66
1000
0000
0010
0100
0010
0000
1000
0000
0001
0000
1000
0001
1000
0000
0100
0000
,  // measure 67
1000
0000
0010
1000
0010
0000
0100
0000
0001
0000
0010
0100
0010
0000
0100
0000
,  // measure 68
1000
0000
0001
1000
0001
0000
0100
0000
0010
0000
1000
0001
0000
0010
0200
0000
,  // measure 69
0000
0000
1300
0000
;
