#TITLE:Soft Paws (Alternative);
#SUBTITLE:;
#ARTIST:Ryu☆;
#TITLETRANSLIT:;
#SUBTITLETRANSLIT:;
#ARTISTTRANSLIT:;
#GENRE:;
#CREDIT:;
#BANNER:Soft Paws.png;
#BACKGROUND:Soft Paws-bg.png;
#LYRICSPATH:;
#CDTITLE:cdtitle.png;
#MUSIC:Soft Paws.mp3;
#OFFSET:-1.051000;
#SAMPLESTART:31.040001;
#SAMPLELENGTH:12.000000;
#SELECTABLE:YES;
#BPMS:0.000000=128.000000
;
#STOPS:160.000000=0.938000
;
#BGCHANGES:;
#KEYSOUNDS:;
#ATTACKS:;

//---------------dance-single - ----------------
#NOTES:
     dance-single:
     :
     Challenge:
     13:
     0.570145,0.606706,0.483217,0.161072,0.393732,446.000000,392.000000,54.000000,18.000000,0.000000,0.000000,0.570145,0.606706,0.483217,0.161072,0.393732,446.000000,392.000000,54.000000,18.000000,0.000000,0.000000:
// measure 0
0000
0000
0000
0000
,  // measure 1
0000
0000
0000
0000
,  // measure 2
0000
0000
0000
0000
,  // measure 3
0000
0000
0000
0000
0000
0000
0000
1000
,  // measure 4
0100
1000
0010
0100
0101
0000
0101
0001
,  // measure 5
0010
0001
0100
0010
1010
0000
1010
1000
,  // measure 6
0001
0010
0001
1000
1100
0000
1100
0000
,  // measure 7
1000
0000
1000
0000
0001
0010
0001
0000
0000
0000
1000
0000
0001
0000
0000
0000
,  // measure 8
0000
0000
1000
0000
0000
0000
1000
0000
0000
0000
0001
0100
0001
0100
0001
0000
,  // measure 9
0000
0000
1000
0000
0000
0000
1000
0000
0000
0000
0001
0010
0001
0010
0001
0000
,  // measure 10
0000
0000
1000
0000
0000
0000
1000
0000
0000
0000
0010
0100
0010
0100
0010
0000
,  // measure 11
0000
0000
0100
0000
0000
0010
0000
1000
0001
0000
0010
0000
1000
0000
0010
0000
,  // measure 12
0000
0000
0001
0000
0000
0000
0001
0000
0000
0000
1000
0010
1000
0010
1000
0000
,  // measure 13
0000
0000
0001
0000
0000
0000
0001
0000
0000
0000
1000
0100
1000
0100
1000
0000
,  // measure 14
0000
0000
0001
0000
0000
0000
0001
0000
0000
0000
0010
0100
0010
0100
0010
0000
,  // measure 15
0000
0000
0100
0000
0010
0001
0000
1000
0100
0000
1000
0000
1001
0000
0000
0000
,  // measure 16
0001
0000
0001
0000
1000
0000
1000
0000
0020
0000
0000
0130
0000
0000
0010
0000
,  // measure 17
1000
0000
0001
0100
0000
0001
0020
0000
0000
0000
0130
0010
0001
1000
0001
0000
,  // measure 18
1000
0000
1000
0000
0010
0000
0010
0000
0200
0000
0000
0301
0000
0000
0010
0000
,  // measure 19
0100
0000
0010
0001
0000
1000
0020
0000
0000
0000
0130
0000
0001
0000
0010
0000
,  // measure 20
0100
0000
0100
0000
0010
0000
0010
0000
0002
0000
0000
0103
0000
0000
0010
0000
,  // measure 21
1000
0000
0100
1000
0000
0100
0020
0000
0000
0000
0130
1000
0010
0100
0010
0000
,  // measure 22
0100
0000
0100
0000
0001
0000
0001
0000
0020
0000
0000
0130
0000
0000
0010
0000
,  // measure 23
0001
0000
1000
0100
0000
0001
0100
0000
0010
0000
0110
0000
1001
0000
0000
0000
,  // measure 24
0001
0100
1000
0100
0101
0000
0101
0001
,  // measure 25
0100
0000
1000
0000
0100
0000
0001
0000
0101
0000
0001
0010
0100
1000
0001
0000
,  // measure 26
0001
0010
1000
0010
0011
0000
0011
0001
,  // measure 27
0010
1000
0010
0001
0011
0010
1000
0010
,  // measure 28
0001
0100
0010
1000
1001
0000
1001
1000
,  // measure 29
0010
0000
0100
0000
0001
0000
1000
0000
1001
0000
1000
0100
0010
0001
1000
0000
,  // measure 30
0001
0010
0100
1000
1100
0000
1100
0000
,  // measure 31
1000
0000
0100
1000
0000
1000
0010
0000
0100
0000
0001
0000
0010
0000
0000
0000
,  // measure 32
0000
0000
0000
0000
0000
0000
0000
0000
0000
0000
0100
0010
0001
0010
0100
0000
,  // measure 33
0000
0000
0000
0000
0000
0000
0000
0000
0000
0000
0100
1000
0010
0100
0010
0000
,  // measure 34
0000
0000
0000
0000
0000
0000
0000
0000
0000
0000
0100
0001
1000
0001
0100
0000
,  // measure 35
0001
0000
0010
0000
0100
1000
0000
1000
0100
0000
0001
0000
0100
0000
1000
0000
,  // measure 36
0000
0000
0000
0000
0000
0000
0000
0000
0000
0000
0001
0100
0010
0100
0001
0000
,  // measure 37
0000
0000
0000
0000
0000
0000
0000
0000
0000
0000
0001
1000
0100
1000
0001
0000
,  // measure 38
0000
0000
0000
0000
0000
0000
0000
0000
0000
0000
1000
0010
1000
0001
1000
0000
,  // measure 39
0001
0000
0010
0000
0100
1000
0000
0010
0100
0000
0101
0000
1010
0000
0000
0000
,  // measure 40
0000
1001
0110
0110
1001
1000
1001
0001
,  // measure 41
1002
0000
0000
0013
0000
0000
0100
0000
1100
0000
1000
0100
0000
0010
0200
0000
,  // measure 42
0000
0000
1300
0100
0010
0100
1000
0000
1010
0000
0010
0000
0110
0000
0100
0000
,  // measure 43
0201
0000
0000
0310
0000
0000
0100
0000
0101
0000
0001
0010
0000
0001
2000
0000
,  // measure 44
3001
1000
0001
0000
0100
0000
1000
0000
1100
0000
0100
0000
0110
0000
0010
0000
,  // measure 45
2010
0000
0000
3100
0000
0000
0010
0000
0011
0000
0001
1000
0000
0010
2000
0000
,  // measure 46
0000
0000
3100
0010
0001
0010
0100
0000
0110
0000
0010
0000
0011
0000
0001
0000
,  // measure 47
0201
0000
0000
0310
0000
0000
0100
0000
0101
0000
0001
0010
0000
0100
1000
0000
,  // measure 48
0001
0110
1001
0000
0001
1000
0100
0001
,  // measure 49
0101
0000
0000
0110
0000
0000
0100
0000
1000
0000
0100
0010
0000
0010
0002
0000
,  // measure 50
0000
0000
0013
0001
0100
0010
1000
0000
0001
0000
1000
0000
0100
0000
0010
0000
,  // measure 51
0011
0000
0000
0101
0000
0000
0100
0000
0001
0000
0100
0010
0000
1000
0001
0000
,  // measure 52
1000
0100
0001
0100
1000
0010
1000
0100
,  // measure 53
0110
0000
0000
1100
0000
0000
0010
0000
1000
0000
0001
0010
0000
0100
0020
0000
,  // measure 54
0000
0000
0130
0010
0001
1000
0010
0000
0100
0000
0001
0000
0010
0000
0001
0000
,  // measure 55
1001
0000
0000
1100
0000
0000
0100
0000
0010
0000
0100
1000
0000
0010
0100
0000
,  // measure 56
0101
1010
2002
0000
3003
0000
0000
0000
;
