#VERSION:0.83;
#TITLE:Sky Drive;
#SUBTITLE:-TURN SPECIAL-;
#ARTIST:Powerless;
#TITLETRANSLIT:;
#SUBTITLETRANSLIT:;
#ARTISTTRANSLIT:;
#GENRE:;
#ORIGIN:;
#CREDIT:;
#BANNER:Sky Drive.png;
#BACKGROUND:Sky Drive-bg.png;
#PREVIEWVID:;
#JACKET:Sky Drive-jacket.png;
#CDIMAGE:;
#DISCIMAGE:;
#LYRICSPATH:;
#CDTITLE:CDtitle.png;
#MUSIC:Sky Drive.ogg;
#OFFSET:0.548000;
#SAMPLESTART:33.727715;
#SAMPLELENGTH:16.457142;
#SELECTABLE:YES;
#BPMS:0.000=175.000;
#STOPS:;
#DELAYS:;
#WARPS:;
#TIMESIGNATURES:0.000=4=4;
#TICKCOUNTS:0.000=4;
#COMBOS:0.000=1;
#SPEEDS:0.000=1.000=0.000=0;
#SCROLLS:0.000=1.000;
#FAKES:;
#LABELS:0.000=Song Start;
#BGCHANGES:;
#KEYSOUNDS:;
#ATTACKS:
;

//---------------dance-single - TURN SPECIAL----------------
#NOTEDATA:;
#CHARTNAME:;
#STEPSTYPE:dance-single;
#DESCRIPTION:TURN SPECIAL;
#CHARTSTYLE:;
#DIFFICULTY:Challenge;
#METER:14;
#RADARVALUES:0.516180,0.595151,0.337122,0.665601,0.129662,418.000000,379.000000,39.000000,77.000000,0.000000,0.000000,0.000000,0.000000,0.000000,0.516180,0.595151,0.337122,0.665601,0.129662,418.000000,379.000000,39.000000,77.000000,0.000000,0.000000,0.000000,0.000000,0.000000;
#CREDIT:;
#NOTES:
// measure 0
0000
0000
0000
0000
,  // measure 1
0000
0000
0000
0000
,  // measure 2
0000
0000
0000
0000
,  // measure 3
0000
0000
0000
0000
,  // measure 4
0000
0000
0000
0000
,  // measure 5
0001
0000
0000
0100
0000
0000
1000
0000
0000
0010
0000
0000
1001
0000
0000
0000
,  // measure 6
1000
0000
0000
0010
0000
0000
0001
0000
0000
0100
0000
0000
1001
0000
0000
0000
,  // measure 7
0001
0000
0000
0010
0000
0000
1000
0000
0000
0010
0000
0000
0200
0000
0000
0000
,  // measure 8
0000
0000
0300
0000
,  // measure 9
1002
0000
0103
0002
0000
0013
1000
0020
,  // measure 10
0000
0130
0001
0200
0000
1300
0001
0000
,  // measure 11
1001
0000
0001
0200
0000
1300
0100
0002
,  // measure 12
0000
0103
1000
0100
0001
0100
0010
1000
,  // measure 13
1100
0000
1000
0020
0000
0031
0010
2000
,  // measure 14
0000
3010
0001
0200
0000
0300
0010
0000
,  // measure 15
1002
0000
0013
2000
0000
3010
0001
0200
,  // measure 16
0000
0000
1300
0000
0100
0000
0001
0000
0010
0000
1000
0000
0010
0001
0100
1000
,  // measure 17
0200
0000
0301
0020
0000
1030
0010
0200
,  // measure 18
0000
1300
0010
0002
0000
0013
0100
0001
,  // measure 19
1001
0000
1000
0200
0000
0301
0100
0020
,  // measure 20
0000
0031
0100
2000
0000
3100
0010
1000
,  // measure 21
1001
0000
0001
0020
0000
1030
0010
0200
,  // measure 22
0000
1300
0010
0002
0000
0013
0100
0001
,  // measure 23
1001
0000
1000
0200
0000
0301
0100
0020
,  // measure 24
0000
0000
0000
0000
,  // measure 25
0031
0100
1000
0010
0001
0000
1001
0000
,  // measure 26
0000
1000
0100
0001
0100
0000
1100
0000
,  // measure 27
0000
1000
0001
0010
1000
0000
1001
0000
,  // measure 28
0000
0001
0010
1000
0010
0000
0011
0000
,  // measure 29
0000
0001
0100
1000
0010
0000
1001
0000
,  // measure 30
0000
1000
0010
0001
0010
0000
1010
0000
,  // measure 31
1000
0100
0002
0000
0103
2000
0000
3020
,  // measure 32
0000
0032
0000
0013
0100
0002
0000
1003
,  // measure 33
0000
0001
0100
1000
0020
0000
0031
1020
,  // measure 34
0000
0000
0230
0000
,  // measure 35
0000
0301
0100
1000
0100
0000
0110
0000
,  // measure 36
0001
0000
0000
0001
0100
0000
0000
0100
1000
0000
0000
1000
0010
0000
0000
0010
,  // measure 37
0001
0100
1000
0100
0001
0000
0011
0000
,  // measure 38
0001
0010
1000
0010
0001
0000
1100
0000
,  // measure 39
1000
0100
0002
0000
0103
0020
0000
0031
,  // measure 40
1000
0001
1000
0001
1000
0001
1000
0001
,  // measure 41
1001
0000
0000
0110
0000
0000
2002
0000
,  // measure 42
0000
0000
0000
3003
,  // measure 43
0000
0000
0000
0000
,  // measure 44
0000
0000
0000
0000
0000
0000
0000
0000
0000
0000
0000
0000
0001
0010
1000
0010
,  // measure 45
0001
0000
0000
1100
0000
0000
0022
0000
,  // measure 46
0000
0000
0000
0033
,  // measure 47
0000
0000
0000
0000
,  // measure 48
0000
0000
0000
0000
,  // measure 49
0102
0000
0000
0010
0000
0000
1003
0000
,  // measure 50
0001
0100
2000
0000
3000
0000
1000
0100
0002
0000
0003
0000
0000
0000
0000
0000
,  // measure 51
2001
0000
0000
0010
0000
0000
3100
0000
,  // measure 52
1000
0100
0002
0000
0003
0000
0001
0100
2000
0000
3000
0000
0000
0000
0000
0000
,  // measure 53
2010
0000
0000
0100
0000
0000
3001
0000
,  // measure 54
1000
0010
0002
0000
0003
0000
0001
0010
2000
0000
3000
0000
0000
0000
0000
0000
,  // measure 55
1002
0000
0000
0100
0000
0000
0013
0000
,  // measure 56
0001
0010
2000
0000
3000
0000
1000
0010
0002
0000
0003
0000
0000
0000
0000
0000
,  // measure 57
0001
0100
1000
0010
0001
0100
1000
0010
,  // measure 58
0001
0100
1000
0010
0001
0100
1000
0010
,  // measure 59
0001
0100
1000
0010
0001
0100
1000
0010
,  // measure 60
0001
0100
1000
0010
0001
0100
1000
0010
,  // measure 61
0001
0000
0000
0100
0000
0000
1000
0000
0000
0100
0000
0000
0101
0000
0000
0000
,  // measure 62
0001
0000
0000
0010
0000
0000
1000
0000
0000
0010
0000
0000
0011
0000
0000
0000
,  // measure 63
0001
0000
0000
0010
0000
0000
1000
0000
0000
0010
0000
0000
0110
0000
0000
0000
,  // measure 64
2200
0000
3300
0000
,  // measure 65
2001
0000
3010
2000
0000
3100
0001
0200
,  // measure 66
0000
0310
1000
0020
0000
0031
1000
0000
,  // measure 67
1001
0000
1000
0020
0000
0031
0010
2000
,  // measure 68
0000
3010
0001
0010
1000
0010
0100
0001
,  // measure 69
0011
0000
0001
0200
0000
1300
0100
0002
,  // measure 70
0000
0103
1000
0020
0000
0030
0100
0000
,  // measure 71
2001
0000
3100
0002
0000
0103
1000
0020
,  // measure 72
0000
0000
0031
0000
0010
0000
1000
0000
0100
0000
0001
0000
0100
1000
0010
0001
,  // measure 73
0020
0000
1030
0200
0000
0301
0100
0020
,  // measure 74
0000
0031
0100
2000
0000
3100
0010
1000
,  // measure 75
1001
0000
0001
0020
0000
1030
0010
0200
,  // measure 76
0000
1300
0010
0002
0000
0013
0100
0001
,  // measure 77
1001
0000
1000
0200
0000
0301
0100
0020
,  // measure 78
0000
0031
0100
2000
0000
3100
0010
1000
,  // measure 79
1001
0000
0001
0020
0000
1030
0010
0200
,  // measure 80
0000
0000
0000
0000
,  // measure 81
0300
0000
0000
0000
;
