#VERSION:0.83;
#TITLE:Shoreline (Alternative);
#SUBTITLE:;
#ARTIST:Oriental ST8;
#TITLETRANSLIT:;
#SUBTITLETRANSLIT:;
#ARTISTTRANSLIT:;
#GENRE:;
#ORIGIN:;
#CREDIT:;
#BANNER:Shoreline.png;
#BACKGROUND:bg.png;
#PREVIEWVID:;
#JACKET:Shoreline-jacket.png;
#CDIMAGE:;
#DISCIMAGE:;
#LYRICSPATH:;
#CDTITLE:;
#MUSIC:Shoreline (Alternative).ogg;
#OFFSET:-0.047000;
#SAMPLESTART:16.047001;
#SAMPLELENGTH:14.222221;
#SELECTABLE:YES;
#BPMS:0.000=135.000,
68.000=67.500,
84.000=135.000;
#STOPS:;
#DELAYS:;
#WARPS:;
#TIMESIGNATURES:0.000=4=4;
#TICKCOUNTS:0.000=4;
#COMBOS:0.000=1;
#SPEEDS:0.000=1.000=0.000=0;
#SCROLLS:0.000=1.000;
#FAKES:;
#LABELS:0.000=Song Start;
#BGCHANGES:;
#KEYSOUNDS:;
#ATTACKS:
;

//---------------dance-single - ----------------
#NOTEDATA:;
#CHARTNAME:;
#STEPSTYPE:dance-single;
#DESCRIPTION:;
#CHARTSTYLE:;
#DIFFICULTY:Challenge;
#METER:14;
#RADARVALUES:0.609732,0.648221,0.000000,0.000000,0.976333,400.000000,400.000000,0.000000,0.000000,0.000000,0.000000,0.000000,0.000000,0.000000,0.609732,0.648221,0.000000,0.000000,0.976333,400.000000,400.000000,0.000000,0.000000,0.000000,0.000000,0.000000,0.000000,0.000000;
#CREDIT:Pandemonium X;
#NOTES:
// measure 0
0000
0000
0000
0000
,  // measure 1
0000
0000
0001
0000
0000
0001
0000
0001
0000
0000
0000
0000
0000
0000
0000
0000
,  // measure 2
0001
0000
0100
0010
0000
1000
0000
0000
0000
0000
0000
0000
0001
1000
0001
1000
,  // measure 3
0001
0000
0000
1000
0000
1000
0000
1000
0001
0000
0001
0000
0000
0000
0000
0000
,  // measure 4
0001
0000
1000
0010
0000
1000
0000
0001
0000
0010
0100
0000
0000
0000
0000
0000
,  // measure 5
1000
0000
0000
1000
0000
1000
0000
0000
1000
0001
0000
1000
0001
1000
0001
1000
,  // measure 6
0100
0000
0010
0001
0000
0100
0000
0100
0000
0100
0000
0100
0000
0100
0010
0000
,  // measure 7
0100
0000
0001
0010
0000
0010
0000
0010
0000
0010
0000
0010
0100
0000
1000
0000
,  // measure 8
0001
0100
0001
0100
0010
1000
0010
1000
0001
0010
0100
1000
0001
0000
0000
0000
,  // measure 9
1000
0000
0000
0001
0000
0000
0010
0000
0000
0100
0000
0000
0010
0000
0001
0000
,  // measure 10
1000
0000
0000
0100
0000
0000
0001
0000
0000
0100
0000
0000
1000
0000
0000
0000
,  // measure 11
0001
0000
0000
0100
0000
0000
0010
0000
0000
1000
0000
0000
0001
0000
1000
0000
,  // measure 12
0100
0000
0000
0001
0000
0000
0100
0000
0000
0010
0000
0000
0001
0000
0000
0000
,  // measure 13
1000
0000
0000
0100
0000
0000
1000
0000
0000
0010
0000
0000
0100
0000
0001
0000
,  // measure 14
0010
0000
0000
1000
0000
0000
0010
0000
0000
0001
0000
0000
0100
0000
0000
0000
,  // measure 15
0010
0000
0000
0000
0000
0000
0010
0000
0000
0000
0000
0000
0010
0000
0000
0100
0000
0000
0000
0000
0000
0010
0000
0000
0000
0000
0000
0000
0000
0000
0100
0000
0000
0000
0000
0000
0010
0000
0000
0000
0000
0000
1000
0000
0001
0000
1000
0000
,  // measure 16
0001
0000
1000
0010
0100
0000
0010
1000
0100
0000
0010
0001
0100
0000
0010
1000
,  // measure 17
0001
0000
0000
0010
0000
0000
0001
0000
0000
0100
0000
0000
0010
0000
0000
1000
0000
0000
0100
0000
0000
0010
0000
0000
0100
0000
0000
1000
0000
0000
0010
0000
,  // measure 18
0000
0100
0000
0000
0010
0000
0000
1000
0000
0000
0001
0000
0000
0010
0000
0000
0001
0000
0000
1000
0000
0000
0010
0000
0000
1000
0000
0000
0001
0000
0010
0000
,  // measure 19
0100
0000
0000
0010
0000
0000
0001
0000
0000
1000
0000
0000
0010
0000
0000
1000
0000
0000
0001
0000
0000
0010
0000
0000
0001
0000
0000
1000
0000
0000
0100
0000
,  // measure 20
0000
1000
0000
0000
0010
0000
0000
0100
0000
0000
0010
0000
0000
1000
0000
0000
0001
0000
0000
0010
0000
0000
0100
0000
0000
1000
0000
0000
0100
0000
0010
0000
,  // measure 21
0001
0100
0000
0010
1000
0000
0001
0100
0000
0010
1000
0000
0001
0010
0000
0100
,  // measure 22
1000
0000
0001
0010
0000
0100
1000
0000
0100
0010
0000
0100
1000
0000
0010
0100
,  // measure 23
0000
0001
0010
0000
0100
0010
0000
0100
1000
0000
0010
0100
0000
0001
0010
0000
,  // measure 24
0100
0010
0000
0001
0100
0000
0010
1000
0000
0001
1000
0000
0100
0000
0010
0000
,  // measure 25
0100
1000
0000
0100
0010
0000
0100
1000
0000
0001
0100
0000
0010
1000
0000
0001
,  // measure 26
0010
0000
0100
0010
0000
0001
0100
0000
0010
1000
0000
0001
0010
0000
0100
0010
,  // measure 27
0000
0001
0100
0000
0010
1000
0000
0001
0010
0000
0100
1000
0000
0001
0100
0000
,  // measure 28
0010
0000
0000
0100
0000
0000
0010
0000
0000
0100
0000
0000
0001
0000
0000
1000
0000
0000
0001
0000
0000
1000
0000
0000
0001
0000
1000
0000
0001
0000
1000
0000
0000
0010
0000
0000
1000
0000
0000
0000
0000
0000
0000
0000
0000
0000
0000
0000
,  // measure 29
0001
1000
0000
0001
1000
0100
0000
0010
0100
0000
1000
0010
0100
0001
0000
1000
,  // measure 30
0000
0100
0010
0000
0001
0010
0000
0100
0000
0010
0000
0001
1000
0010
1000
0001
,  // measure 31
0000
1000
0100
0000
1000
0010
0000
0100
0000
0010
0100
0000
0001
1000
0000
0100
,  // measure 32
0000
0010
0100
0000
1000
0010
0000
0100
0000
0001
1000
0000
0001
0010
0100
0010
,  // measure 33
0001
1000
0010
0000
1000
0001
0000
0010
0000
0010
0100
0000
1000
0001
0000
0100
,  // measure 34
0000
0000
0010
0000
1000
0001
0000
0100
0000
0010
0000
1000
0001
0010
0001
1000
,  // measure 35
0001
0000
0100
0000
0010
1000
0000
0100
0000
0000
0010
0000
0100
1000
0000
0001
,  // measure 36
1000
0000
0000
0100
0000
0000
0001
0000
0000
0010
0000
0000
1000
0000
0001
0000
,  // measure 37
0100
0000
0010
1000
0100
0001
0100
0010
,  // measure 38
0001
0100
1000
0100
0010
1000
0001
0010
,  // measure 39
0100
0010
0001
1000
0010
1000
0001
0010
,  // measure 40
0100
1000
0100
0001
0100
1000
0010
0100
,  // measure 41
0001
0010
1000
0010
0001
0100
0010
1000
,  // measure 42
0001
1000
0100
0001
0100
0010
0001
1000
,  // measure 43
0010
0100
0001
1000
,  // measure 44
0001
0100
0001
0100
0010
1000
0010
1000
0001
0010
0001
0010
0100
1000
0100
1000
,  // measure 45
0010
0000
0000
0000
;
