#TITLE:STEEL NEEDLE (Alternative);
#SUBTITLE:;
#ARTIST:Scorpion;
#TITLETRANSLIT:;
#SUBTITLETRANSLIT:;
#ARTISTTRANSLIT:;
#GENRE:;
#CREDIT:;
#BANNER:STEEL NEEDLE.png;
#BACKGROUND:STEEL NEEDLE-bg.png;
#LYRICSPATH:;
#CDTITLE:;
#MUSIC:STEEL NEEDLE.ogg;
#OFFSET:-0.422000;
#SAMPLESTART:28.519564;
#SAMPLELENGTH:14.341459;
#SELECTABLE:YES;
#BPMS:0.000000=102.500000
,31.000000=205.000000
,61.000000=102.500000
,63.000000=205.000000
,91.000000=102.500000
,92.000000=205.000000
,150.000000=102.500000
,151.000000=205.000000
,155.000000=102.500000
,156.000000=205.000000
,170.000000=102.500000
,171.000000=205.000000
,187.000000=102.500000
,203.000000=205.000000
,298.500000=102.500000
,300.500000=205.000000
;
#STOPS:
;
#BGCHANGES:;
#KEYSOUNDS:;
#ATTACKS:;

//---------------dance-single - ----------------
#NOTES:
     dance-single:
     :
     Challenge:
     17:
     0.848624,1.067590,0.347487,0.148923,0.707383,718.000000,676.000000,42.000000,18.000000,0.000000,0.000000,0.848624,1.067590,0.347487,0.148923,0.707383,718.000000,676.000000,42.000000,18.000000,0.000000,0.000000:
// measure 0
0000
0000
0000
0000
,  // measure 1
0000
0000
0000
0000
,  // measure 2
0000
0000
0000
0000
,  // measure 3
0000
0000
0000
0000
,  // measure 4
1001
0000
0001
0010
0000
0000
0001
0000
1000
0000
0100
1000
0000
0010
0100
0000
,  // measure 5
0001
0000
0001
0000
0001
0000
0000
0000
0000
0000
0000
0000
1000
0000
0000
0000
0001
0000
0000
0000
0100
0000
0010
0000
0000
0000
0100
0000
0001
1000
0001
1000
,  // measure 6
0001
0000
0100
0010
0000
0000
1000
0000
0100
0000
1000
0010
0000
0010
1000
0000
,  // measure 7
0100
0100
0100
0000
0010
0100
0000
0100
0010
0000
0001
0100
0010
1000
0100
0010
,  // measure 8
0002
0000
0000
0000
1003
0000
0100
0000
1000
0000
0010
0100
0001
0000
1000
0000
,  // measure 9
0000
0000
0000
0000
0001
0000
1000
0001
1000
0000
0001
1000
0010
0100
0010
0100
,  // measure 10
0001
0000
0000
0000
1000
0100
1000
0100
1000
0000
0100
0000
0010
0000
0001
0000
,  // measure 11
0010
0000
0010
0000
0100
0000
0010
0100
1000
0000
1000
0100
0010
0100
0010
0100
,  // measure 12
1000
0000
0001
1001
0000
1010
0000
0101
,  // measure 13
0000
0001
0011
0000
0000
0100
0010
0010
,  // measure 14
0002
0000
0000
0000
0103
0010
0100
0000
0000
0000
1010
0000
0000
0000
1000
0000
,  // measure 15
0100
0010
0001
1000
0001
0000
0010
0001
0101
0000
1010
0000
1000
0000
0100
0000
,  // measure 16
0000
0000
0010
0100
1000
0000
0001
0000
1000
0000
0010
0100
0000
0000
0100
0001
,  // measure 17
0010
0000
0001
0000
1000
0000
0010
0000
1000
0000
0100
0010
0001
0000
0010
0001
,  // measure 18
1000
0001
1000
0001
1000
0000
0010
1000
0100
0000
0010
0001
0000
0000
0010
0100
,  // measure 19
0010
0001
0010
0001
0100
0000
0010
0000
1000
0001
0010
0001
1000
0000
0010
0000
,  // measure 20
0000
0000
0100
0010
1000
0000
0100
0000
1000
0000
0001
1000
0000
0000
0010
0100
,  // measure 21
0001
0000
0010
0000
0100
0000
1000
0000
0001
0100
0001
0100
0001
0000
1000
0010
,  // measure 22
1000
0100
1000
0010
1000
0000
0001
0000
1000
0001
0010
0000
0000
0000
0000
0000
,  // measure 23
2002
0000
0000
0000
3000
0000
0000
0000
0013
0000
0100
0000
1000
0000
0010
1000
,  // measure 24
0010
0000
0100
0000
0001
0010
0001
0010
0001
1000
0001
1000
0001
0100
0001
0100
,  // measure 25
0001
0000
0100
0010
1000
0000
0001
0000
1000
0000
0100
0010
0100
0010
0100
0010
,  // measure 26
0100
0000
0010
0001
0100
0000
0010
0000
0000
0000
1000
0001
0100
0010
0100
0010
,  // measure 27
0100
0000
0010
1000
0010
0000
0100
0000
0001
1000
0001
1000
0001
1000
0001
1000
,  // measure 28
0010
0100
0010
0100
0010
0100
0010
1000
0000
0001
1000
0001
1000
0001
0100
0010
,  // measure 29
0100
0010
1000
0001
1000
0001
1000
0001
0000
0000
0100
0010
0100
0010
0100
0010
,  // measure 30
1000
0001
1000
0001
1000
0001
1000
0001
0010
0001
0010
0001
0010
0001
1000
0100
,  // measure 31
1000
0100
1000
0100
0010
0000
0000
0000
0100
0000
0000
0000
1000
0000
0000
0010
,  // measure 32
1000
0000
0001
0000
0010
0001
0100
0000
0010
1000
0010
1000
0010
0000
0100
0001
,  // measure 33
0010
0000
0100
0000
2000
3000
2000
3000
0001
0100
0000
0100
0001
0000
0010
0000
,  // measure 34
0100
0010
0100
0000
0010
0000
0001
0000
1000
0001
0000
0100
0001
0000
0010
0000
,  // measure 35
0100
0000
1000
0000
2002
0000
3003
0000
0100
0010
0000
0100
0001
0000
0010
0000
,  // measure 36
0100
0000
0010
0000
0001
1000
0001
0000
1000
0010
1000
0010
1000
0000
0010
0100
,  // measure 37
0001
0000
0010
0000
0100
0010
0001
0000
1000
1000
1000
1000
1001
0000
0001
1000
,  // measure 38
0010
0000
0000
0000
0100
0000
0010
1000
0100
0000
0010
0000
2002
0000
0000
0003
,  // measure 39
3100
0000
0010
0000
0100
0000
1000
0001
1000
0000
0000
0000
0010
0000
0100
0000
,  // measure 40
0001
0000
0010
0000
0001
0000
1000
0010
1000
0000
0000
0000
0001
0000
0001
0000
,  // measure 41
1000
0000
0001
0010
0001
0000
0010
0100
0010
0000
0100
0000
1000
0000
0010
0000
,  // measure 42
0100
0000
0000
0000
0010
0000
1000
0000
0010
0000
0000
0000
1000
0000
0010
0000
0200
0300
0002
0003
0002
0003
0002
0003
1000
0000
0100
0000
0000
0000
0010
0000
,  // measure 43
0001
0000
0010
0000
0001
0000
0100
0010
1000
0000
0001
0000
1000
0001
0000
0010
,  // measure 44
0100
0000
0010
0000
0001
0000
1000
0100
0010
0100
1000
0001
0100
0000
0010
0100
,  // measure 45
0001
0000
0100
0010
1000
0000
0001
0010
0100
0000
1000
0000
0001
0000
0100
0010
,  // measure 46
1000
0100
0000
0010
0100
1000
0001
0000
0200
0000
0000
0000
0310
0000
0000
0000
,  // measure 47
0000
0000
0000
0000
,  // measure 48
0000
0000
0000
1001
,  // measure 49
0000
0000
0000
0000
,  // measure 50
0000
0000
0000
0000
0000
0000
0100
0001
,  // measure 51
0010
0001
0100
0010
1000
0100
0000
1100
,  // measure 52
0000
1000
0000
1010
0000
0110
0000
0100
,  // measure 53
0010
1000
0001
0010
0100
0010
0001
0100
,  // measure 54
0010
1000
0100
0010
0100
1000
0000
0001
,  // measure 55
0100
0001
0010
0100
0010
0001
0000
1010
,  // measure 56
0000
0100
0000
0101
0000
0011
0000
0010
,  // measure 57
0001
0100
0010
0100
0001
1000
0100
1000
,  // measure 58
0010
0100
0001
0010
0100
1000
1100
0000
,  // measure 59
1100
1010
1010
0110
,  // measure 60
0110
0000
0101
0000
0001
0001
0011
0000
,  // measure 61
0011
1100
1100
1001
,  // measure 62
1001
0000
0000
0000
0010
0000
0100
0000
0010
1000
0001
0100
0010
0000
0000
0000
,  // measure 63
1000
1000
1100
0000
0101
0000
0011
0010
,  // measure 64
0010
0000
0000
0000
0110
0000
0000
0100
1000
0000
0010
0000
1010
0000
0000
0000
,  // measure 65
1010
0000
0101
0000
0101
0000
1001
0001
,  // measure 66
0010
0000
0100
0000
1000
0001
1000
0001
0200
0000
0000
0000
0310
1000
0000
0000
,  // measure 67
0001
0000
0000
0010
0001
0000
1000
0000
0010
0000
0100
0000
0001
0010
0000
0100
,  // measure 68
1000
0000
0001
0000
1000
0000
0010
0000
1000
0000
0100
0000
0010
0000
0000
0010
,  // measure 69
0100
0000
0000
0100
1000
0000
0100
0000
1000
0000
0010
0000
0100
0000
0000
0010
,  // measure 70
0100
0000
0000
0100
0010
0000
1000
0000
0001
0000
0010
0000
0100
0000
0000
1000
,  // measure 71
0100
0000
0000
0100
0010
0000
0100
0000
1000
0000
0010
0000
0100
0000
0000
0001
,  // measure 72
0100
0000
0000
0100
0010
0000
1000
0000
0001
0000
0010
0000
0100
0000
0000
0010
,  // measure 73
0001
0000
0000
0001
0100
0000
0010
0000
1000
0000
0100
0000
0010
0000
0001
0000
,  // measure 74
0010
0000
0100
0000
0010
0000
0001
0000
1000
0000
0010
0000
0000
0000
0000
1002
,  // measure 75
0000
0000
0013
0100
0010
0001
0100
0010
,  // measure 76
1000
0001
0010
1000
0010
0100
0010
0001
,  // measure 77
1000
0010
0100
1000
0100
0010
1000
0001
,  // measure 78
0010
0100
0010
0001
0010
1000
0010
0100
,  // measure 79
0010
0001
1000
0001
0100
0001
0010
0100
,  // measure 80
0010
0001
0100
1000
0100
0010
1000
0001
,  // measure 81
0010
0100
0010
0001
1000
0010
0100
0001
,  // measure 82
0010
0000
0100
0000
1000
0001
1000
0001
1000
0001
1000
0001
1000
0001
1000
0001
,  // measure 83
0020
0130
0000
0000
;
