#TITLE:SO DEEP (PERFECT SPHERE REMIX) (Alternative);
#SUBTITLE:;
#ARTIST:SILVERTEAR;
#TITLETRANSLIT:;
#SUBTITLETRANSLIT:;
#ARTISTTRANSLIT:;
#GENRE:;
#CREDIT:;
#BANNER:SO DEEP (PERFECT SPHERE REMIX).png;
#BACKGROUND:SO DEEP (PERFECT SPHERE REMIX)-bg.png;
#LYRICSPATH:;
#CDTITLE:;
#MUSIC:SO DEEP (PERFECT SPHERE REMIX).ogg;
#OFFSET:0.006000;
#SAMPLESTART:8.560000;
#SAMPLELENGTH:15.000000;
#SELECTABLE:YES;
#DISPLAYBPM:140.000000;
#BPMS:0.000000=139.731003
,4.000000=140.018005
;
#STOPS:
;
#BGCHANGES:;
#KEYSOUNDS:;
#ATTACKS:;

//---------------dance-single - ----------------
#NOTES:
     dance-single:
     :
     Challenge:
     15:
     0.744055,0.910947,0.052084,0.520839,1.031261,500.000000,495.000000,5.000000,50.000000,0.000000,0.000000,0.744055,0.910947,0.052084,0.520839,1.031261,500.000000,495.000000,5.000000,50.000000,0.000000,0.000000:
// measure 0
0000
0000
0000
0000
,  // measure 1
0000
0000
0000
0000
,  // measure 2
0000
0000
0000
0000
,  // measure 3
0220
0000
0000
0000
,  // measure 4
0000
0000
0000
0330
,  // measure 5
1000
0010
0000
0100
0010
0000
1000
0010
0000
0100
0010
0000
1000
0000
0001
0000
,  // measure 6
0010
0001
0000
0010
0100
0000
0010
0001
0000
0010
0100
0000
0010
0000
0001
0000
,  // measure 7
0100
0010
0000
0100
0001
0000
0100
0010
0000
0100
0001
0000
1000
0000
0100
0000
,  // measure 8
0010
0100
0000
0010
0001
0000
0010
0100
0000
0100
1000
0000
1000
0000
0001
0000
,  // measure 9
0100
0010
0000
1000
0010
0000
0100
0010
0000
1000
0010
0000
0100
0000
0001
0000
,  // measure 10
0010
0100
0000
0010
0001
0000
0010
0100
0000
0010
0001
0000
1000
0000
0001
0000
,  // measure 11
1000
0100
0000
0010
0001
0000
1000
0100
0000
0010
0001
0000
1000
0000
0001
0000
,  // measure 12
1000
0010
0000
0100
0001
0000
1000
0010
0000
0010
0100
0000
0001
0000
1000
0000
,  // measure 13
0100
0010
0000
0100
1000
0000
0010
0100
0000
0001
1000
0000
0001
0000
0010
0000
,  // measure 14
0100
0010
0000
0001
0100
0000
0010
1000
0000
0100
0010
0000
0100
0000
1000
0000
,  // measure 15
0010
1000
0000
0010
0100
0000
0010
1000
0000
0010
0100
0000
0010
0000
1000
0000
,  // measure 16
0001
0010
0000
0100
0010
0000
0001
0010
0000
0100
0010
0000
0001
0000
0100
0000
,  // measure 17
0010
1000
0000
0001
0010
0000
0100
0010
0000
0001
1000
0000
0010
0000
1000
0000
,  // measure 18
0100
1000
0000
0010
0100
0000
0001
0010
0000
0100
0010
0000
0001
0000
1000
0000
,  // measure 19
0001
0100
0000
0100
0010
0000
0010
1000
0000
1000
0001
0000
0010
0000
0100
0000
,  // measure 20
1000
0100
0000
0100
0010
0000
0010
0001
0000
0001
0100
0000
0020
0000
2030
0000
,  // measure 21
3200
0010
0300
0001
0100
0000
0010
1000
0000
0001
0010
0000
0200
0000
2300
0000
,  // measure 22
3020
0100
0030
0001
0010
0000
0100
1000
0000
0010
0100
0000
0002
0000
2003
0000
,  // measure 23
3200
1000
0300
0001
0010
0000
1000
0100
0000
0010
0100
0000
1000
0000
0001
0000
,  // measure 24
0010
0001
0000
0100
0010
0000
1000
0001
0000
0010
0100
0000
0020
0000
0032
0000
,  // measure 25
2003
0010
3000
0100
0001
0000
0010
0100
0000
0010
0001
0000
2000
0000
3200
0000
,  // measure 26
0320
0100
0030
1000
0001
0000
0100
0010
0000
1000
0001
0000
2000
0000
3200
0000
,  // measure 27
0320
0030
0100
2002
3003
1000
0202
0303
,  // measure 28
0001
0000
2200
0000
3300
0000
0000
1001
0000
0001
1000
0000
0200
0000
0320
0000
,  // measure 29
0032
0010
0003
1000
0100
0000
1000
0010
0000
0100
0001
0000
2000
0000
3200
0000
,  // measure 30
0320
0001
0030
0001
0100
0000
0010
1000
0000
0100
0001
0000
2000
0000
3200
0000
,  // measure 31
0320
0100
0030
0100
1000
0000
0001
0100
0000
0010
1000
0000
0001
0000
1000
0000
,  // measure 32
0100
1000
0000
0010
0100
0000
0001
0010
0000
0100
0010
0000
0002
0000
2003
0000
,  // measure 33
3020
1000
0030
0100
0001
0000
0010
0100
0000
0010
0001
0000
2000
0000
3200
0000
,  // measure 34
2300
0001
3000
0010
0100
0000
0001
1000
0000
0100
0010
0000
0200
0000
2300
0000
,  // measure 35
3020
0100
0030
0100
0001
0000
0001
1000
0000
1000
0100
0000
0010
0000
0100
0000
,  // measure 36
1000
0100
0000
0100
0010
0000
0010
0001
0000
0001
0100
0000
0010
0000
1000
0000
,  // measure 37
0001
1000
0000
0010
0100
0000
0001
0010
0100
0010
0000
0010
0100
0000
0010
0001
,  // measure 38
0000
1000
0000
0001
0100
0000
0010
0000
1000
0001
1000
0000
0100
0000
0010
0000
,  // measure 39
0001
0010
0000
0100
0010
0000
0001
1000
0001
0100
0000
0100
0010
0000
1000
0100
,  // measure 40
0000
1000
0000
0001
0100
0000
0010
0000
1000
0001
1000
0000
0010
0000
1000
0000
,  // measure 41
0100
0010
0000
0100
1000
0000
0010
0100
0001
1000
0000
1000
0001
0000
0010
0100
,  // measure 42
0000
0010
0000
0100
1000
0000
0010
0000
0100
0001
0100
0000
0001
0000
0010
0000
,  // measure 43
0100
0010
0000
0100
1000
0000
0010
0100
0001
1000
0000
1000
0010
0000
1000
0001
,  // measure 44
0000
0010
0000
0001
0100
0000
0010
0000
1000
0100
1000
0000
0100
0000
0010
0000
,  // measure 45
0001
0100
0000
0100
1000
0000
0100
0010
1000
0001
0000
1000
0200
0000
0302
0000
,  // measure 46
0203
0010
0300
0010
0001
0000
1000
0000
0001
0100
0010
0000
2000
0000
3200
0000
,  // measure 47
0320
0100
0030
0100
0010
0000
0001
0010
1000
0010
0000
0010
0100
0000
0010
0000
,  // measure 48
0000
0100
0000
0100
1000
0000
0010
0000
0100
0001
0010
0000
0100
0000
1000
0000
,  // measure 49
0001
0100
0010
0000
1000
0001
0010
0000
0100
1000
0010
0000
0100
0001
0010
0000
,  // measure 50
1000
0100
0010
0000
0100
1000
0010
0000
0100
0001
0010
0000
0100
0010
0001
0000
,  // measure 51
1000
0010
1000
0010
1000
0010
1000
0010
0100
0001
0100
0001
0100
0001
0100
0001
,  // measure 52
0100
0010
1000
0001
0010
0100
0010
0001
1000
0010
0100
0001
0010
0100
1000
0001
,  // measure 53
1000
0000
0000
0000
;
