#VERSION:0.83;
#TITLE:聖人の塔;
#SUBTITLE:-STREAM SPECIAL-;
#ARTIST:Beridzebeth;
#TITLETRANSLIT:SEIJIN NO TOU;
#SUBTITLETRANSLIT:;
#ARTISTTRANSLIT:;
#GENRE:;
#ORIGIN:;
#CREDIT:;
#BANNER:SEIJIN NO TOU.png;
#BACKGROUND:SEIJIN NO TOU-bg.png;
#PREVIEWVID:;
#JACKET:jacket.png;
#CDIMAGE:;
#DISCIMAGE:;
#LYRICSPATH:;
#CDTITLE:;
#MUSIC:SEIJIN NO TOU.mp3;
#OFFSET:-10.292001;
#SAMPLESTART:20.180000;
#SAMPLELENGTH:12.000000;
#SELECTABLE:YES;
#BPMS:0.000=97.000,
16.000=194.000,
208.000=97.000,
224.000=194.000,
288.000=97.000,
300.000=194.000;
#STOPS:;
#DELAYS:;
#WARPS:;
#TIMESIGNATURES:0.000=4=4;
#TICKCOUNTS:0.000=4;
#COMBOS:0.000=1;
#SPEEDS:0.000=1.000=0.000=0;
#SCROLLS:0.000=1.000;
#FAKES:;
#LABELS:0.000=Song Start;
#BGCHANGES:;
#KEYSOUNDS:;
#ATTACKS:
;

//---------------dance-single - ----------------
#NOTEDATA:;
#CHARTNAME:;
#STEPSTYPE:dance-single;
#DESCRIPTION:;
#CHARTSTYLE:;
#DIFFICULTY:Challenge;
#METER:15;
#RADARVALUES:0.674416,1.021351,0.000000,0.288867,0.181574,572.000000,572.000000,0.000000,35.000000,0.000000,0.000000,0.000000,0.000000,0.000000,0.674416,1.021351,0.000000,0.288867,0.181574,572.000000,572.000000,0.000000,35.000000,0.000000,0.000000,0.000000,0.000000,0.000000;
#CREDIT:;
#NOTES:
// measure 0
2000
0000
0000
3002
,  // measure 1
0000
0000
0203
0302
,  // measure 2
0023
0230
0000
0000
,  // measure 3
0310
0001
0010
0001
0010
0001
0010
0001
0010
1000
0010
0001
0100
0010
1000
0001
,  // measure 4
1000
0100
1000
0010
0100
0001
0010
0001
,  // measure 5
1000
0100
0001
0100
1000
0100
0010
0001
,  // measure 6
0001
0010
0001
0100
0010
1000
0100
1000
,  // measure 7
0001
0010
1000
0010
0001
0010
0100
1000
,  // measure 8
0010
1000
0001
0010
0100
0010
0001
1000
,  // measure 9
0010
0100
0001
0010
0100
1000
0001
1000
,  // measure 10
0100
1000
0010
0100
0001
0010
0100
0010
,  // measure 11
0001
1000
0100
1000
0010
0100
0001
1000
,  // measure 12
0200
0000
0000
0310
0100
1000
0100
1000
,  // measure 13
0010
0100
0001
0010
0100
0010
0001
1000
,  // measure 14
0001
0010
0001
1000
0100
0010
0100
1000
,  // measure 15
0002
0023
0230
2300
,  // measure 16
3100
0000
1000
0010
0000
0010
0100
0000
,  // measure 17
0010
0000
0100
0001
0000
0001
0010
0000
,  // measure 18
0100
0000
0010
0001
0100
0010
1000
0001
,  // measure 19
0010
0100
0010
0001
1000
0100
0010
0100
,  // measure 20
1000
0001
0010
0001
1000
0001
0100
0001
,  // measure 21
1000
0001
0010
0001
1000
0001
0010
0100
,  // measure 22
1000
0100
0010
0001
0100
0001
0010
0100
,  // measure 23
0010
0001
1000
0100
0010
0100
1000
0010
,  // measure 24
0100
0001
1000
0100
1000
0010
0100
0001
,  // measure 25
0010
0100
0010
0001
1000
0100
1000
0001
,  // measure 26
0100
0001
0010
0001
1000
0010
0100
0010
,  // measure 27
1000
0100
0010
0100
1000
0001
0010
0001
,  // measure 28
2000
0000
0000
3001
1000
0100
1000
0010
,  // measure 29
0100
0001
0010
0001
1000
0100
0010
0100
,  // measure 30
1000
0001
0010
0001
1000
0010
0100
0001
,  // measure 31
2000
3200
0320
0032
,  // measure 32
0013
0000
0001
0010
0000
0010
0100
0000
,  // measure 33
0010
0000
0100
1000
0000
1000
0010
0100
,  // measure 34
0001
0010
0001
0100
0010
1000
0001
0010
,  // measure 35
0100
0010
0001
0100
0010
1000
0001
0010
,  // measure 36
0100
1000
0001
0001
0100
0010
0010
1000
,  // measure 37
0100
0100
1000
0001
0001
0100
0010
0010
,  // measure 38
0100
0001
0020
0000
0130
0002
0000
1003
,  // measure 39
0020
0000
0130
0002
0000
1003
0200
0000
,  // measure 40
0310
0001
1000
1000
0010
0100
0100
0001
,  // measure 41
0010
0010
0001
1000
1000
0010
0100
0100
,  // measure 42
0010
1000
0200
0000
0310
2000
0000
3001
,  // measure 43
0200
0000
0310
2000
0000
3001
0020
0000
,  // measure 44
0130
1000
0001
0001
0100
0010
0010
1000
,  // measure 45
0001
0001
0010
0100
0100
0010
0001
0001
,  // measure 46
1000
0001
0020
0000
0130
2000
0000
3010
,  // measure 47
0200
0000
0310
2000
0000
3001
0020
0000
,  // measure 48
0130
1000
0001
0001
0010
0100
0010
0010
,  // measure 49
0001
1000
0010
0010
0100
0001
1000
1000
,  // measure 50
0001
0010
0010
0100
1000
1000
0010
0100
,  // measure 51
0100
0010
1000
1000
0001
0010
0010
0100
,  // measure 52
1000
0100
0010
0001
0010
0100
0010
0001
1000
0100
0010
0100
1000
0001
0100
0010
,  // measure 53
1000
0100
0010
0001
0010
0100
0010
0001
0010
0100
1000
0100
0010
0100
1000
0001
,  // measure 54
0200
0000
0000
0000
0000
0000
0000
0000
0310
0000
0000
1000
0000
0000
0100
0000
,  // measure 55
0010
0000
0000
0100
0000
0000
1000
0000
0002
0000
0000
0000
0103
0010
1000
0100
,  // measure 56
0010
0010
0001
0010
0100
0010
0001
1000
,  // measure 57
0010
0010
0010
0010
0100
0100
0100
0100
,  // measure 58
0010
1000
0001
0001
0010
0100
0010
0001
,  // measure 59
1000
1000
1000
1000
0001
0001
0001
0001
,  // measure 60
1000
0010
0001
0010
0100
0010
1000
0001
,  // measure 61
1000
0100
0001
0100
0010
0001
0010
0100
,  // measure 62
1000
0100
0001
0100
0010
0001
0010
0100
,  // measure 63
1000
0010
0001
0010
0100
0010
0001
1000
,  // measure 64
0010
0010
0001
0100
0100
0010
1000
1000
,  // measure 65
0001
1000
1000
0100
0010
0010
0001
0010
,  // measure 66
0010
0100
1000
1000
0001
0100
0100
0010
,  // measure 67
1000
1000
0100
0010
0010
0001
0100
0100
,  // measure 68
0010
1000
1000
0001
0010
0010
0001
0100
,  // measure 69
0100
0010
1000
1000
0100
0010
0010
0001
,  // measure 70
1000
1000
0001
0100
0100
1000
0100
0100
,  // measure 71
0010
1000
1000
0010
0100
0100
0010
1000
,  // measure 72
1000
0100
1000
0010
0100
0001
0010
0100
0010
0001
1000
0100
0010
0001
0010
0100
,  // measure 73
1000
0001
0100
0001
1000
0100
0010
0100
1000
0001
0010
0100
0010
0001
0100
0020
,  // measure 74
0002
0000
0000
0000
,  // measure 75
0033
0000
0000
0000
;
