#TITLE:SCREAM SQUAD (Alternative);
#SUBTITLE:;
#ARTIST:CALF;
#TITLETRANSLIT:;
#SUBTITLETRANSLIT:;
#ARTISTTRANSLIT:;
#GENRE:;
#CREDIT:;
#BANNER:SCREAM SQUAD.png;
#BACKGROUND:SCREAM SQUAD-bg.png;
#LYRICSPATH:;
#CDTITLE:;
#MUSIC:SCREAM SQUAD.mp3;
#OFFSET:-1.173999;
#SAMPLESTART:0.060000;
#SAMPLELENGTH:15.000000;
#SELECTABLE:YES;
#BPMS:0.000000=110.000000
,30.000000=220.000000
;
#STOPS:138.000000=0.136000,
138.500000=0.136000,
139.000000=0.136000,
139.500000=0.136000,
185.000000=0.136000,
186.500000=0.136000,
250.750000=2.182000
;
#BGCHANGES:;
#KEYSOUNDS:;
#ATTACKS:;

//---------------dance-double - ----------------
#NOTES:
     dance-double:
     :
     Challenge:
     10:
     0.708257,0.782503,0.696475,0.000000,0.041239,541.000000,465.000000,76.000000,0.000000,0.000000,0.000000,0.708257,0.782503,0.696475,0.000000,0.041239,541.000000,465.000000,76.000000,0.000000,0.000000,0.000000:
00000000
00000000
00000000
00000000
,
00000000
00000000
00000000
00000000
,
00000000
00000000
00000000
00000000
,
00000000
00000000
00000000
00000000
,
00000000
00000000
00000000
00000000
,
00000000
00000000
00000000
00000000
,
00000000
00000000
00000000
00000000
,
10000000
01000000
00010000
00001000
,
00001100
00000000
00000011
00000000
,
00000001
00000100
00001000
00010000
,
00011000
00000000
00101000
00000000
,
00010000
00000000
01000000
00000000
00100000
00000000
10000000
00000000
01000000
00000000
00100000
00000000
,
00010000
00000000
00100000
00000000
00001000
00000000
00010000
00000000
00000010
00000000
00000100
00000000
,
00000001
00000001
00001000
00001000
,
00000001
00000100
00000010
00001000
,
00000100
00010000
00001000
00100000
00010000
01000000
10000000
01000000
,
00010000
00100000
00001000
00010000
00000100
00001000
00000010
00000000
,
00000100
00000000
00000001
00000000
00001000
00000001
00000010
00000000
,
00000010
00000000
00000001
00000000
00000100
00000010
00001000
00000000
,
00000010
00001000
00000100
00000001
,
00000100
00001000
00000010
00000100
,
00000001
00001000
00000010
00001000
00000100
00000010
00000100
00001000
,
00000010
00000100
00000010
00001000
00000100
00010000
00001000
00100000
,
00010000
00010000
01000000
01000000
00001000
00001000
00010000
00010000
,
00000100
00000100
00001000
00000010
00000100
00000001
00000000
00000000
,
00000001
00000000
00001001
00000000
00000001
00000100
00000010
00000000
,
00001000
00000000
00001100
00000000
00000100
00010000
00001000
00000000
,
00100000
00010000
00100000
00000000
10000000
01000000
10000000
00000000
,
00100000
00010000
01000000
00100000
10000000
00010000
00100000
00000000
,
01000000
00010000
10000000
01000000
00100000
01000000
10000000
00010000
,
01000000
00010000
00100000
00001000
00010000
00000100
00001000
00000010
,
00000110
00000000
00000000
00001001
00000000
00000000
00000000
00000000
,
00001100
00000000
00000000
00011000
00000000
00001000
00101000
00000000
,
01100000
00000000
00000000
10010000
00000000
10000000
01000000
00000000
,
00110000
00000000
00000000
11000000
00000000
00010000
01010000
00000000
,
01010000
00000000
00000000
00101000
00000000
00010000
00000100
00000000
,
00001000
00000010
00000100
00000001
,
00000010
00000000
00000100
00000000
00000100
00000010
00000000
00000010
,
00000001
00000100
00000010
00001000
00000000
00000100
00010000
00000000
,
00010000
01000000
00100000
10000000
01000000
00010000
01000000
10000000
,
00100000
00010000
00100000
10000000
00010000
00100000
00001000
00010000
,
00000100
00001000
00000010
00001000
00000001
00000010
00001000
00000010
,
00000001
00000100
00000010
00010000
00001000
00100000
00010000
01000000
,
00100000
10000000
01000000
00010000
01000000
10000000
00100000
01000000
,
00010000
00100000
01000000
00100000
00010000
10000000
00010000
10000000
,
00010000
00100000
00010000
00100000
00001000
00010000
00000100
00001000
,
00000010
00000100
00000001
00000010
00000000
00000000
00000011
00000000
,
00000011
00000011
00000000
00001100
,
00001100
00001100
00000000
00010100
,
00010100
00010100
00000000
00011000
,
00011000
00011000
00000000
00110000
,
10010000
01010000
00000000
10010000
,
11000000
00110000
00000000
00110000
,
00101000
00000000
00001100
00000000
00000100
00010000
00001000
00001000
,
01000000
00100000
01000000
00000000
00010000
00000000
00100000
00000000
,
00001000
00011000
00010000
00000010
,
00000100
00000101
00000100
00000010
,
00001000
00001001
00000100
00000010
,
00001000
00001100
00000100
00010000
,
00001000
01100000
10000000
10000000
,
00010000
01010000
01000000
01000000
,
00100000
10010000
00010000
00100000
,
00001000
00010000
00001000
00010000
,
00010000
00000000
00001000
00010000
00000000
00000100
00000000
00010000
,
00001000
00100000
00010000
00100000
00000000
00100000
00001000
00010000
,
00000100
00001000
00000000
00000010
00000010
00000000
00000100
00000000
,
00000010
00000000
00000110
00000000
00000000
00001100
00000000
00000000
,
00001001
00000000
00000011
00000000
00000000
00001100
00000000
00000000
,
00001100
00000000
00010100
00000000
00000000
00110000
00000000
00000000
,
10010000
00000000
10100000
00000000
00000000
10010000
00000000
00000000
,
10000000
00000000
00000000
00110000
00110000
00000000
00000000
00000000
00000000
00000000
01010000
00000000
00000000
00000000
00000000
00000000
,
00000000
00000000
10010000
00000000
00000000
10010000
00000000
00100000
,
10010000
00000000
10000000
00010000
00100000
00000000
00100000
00000000
,
00001000
00000000
00010000
00000100
00001000
00000010
00000000
00000100
,
00000100
00000000
00000100
00000010
00001000
00000001
00000000
00000001
,
00000000
00000001
00000010
00000000
00001000
00000000
00000010
00000000
,
00000001
00000000
00000101
00000000
00001010
00000000
00000010
00001000
,
00000000
00000010
00010000
00001000
00100000
00010000
00000000
01000000
,
01000000
00000000
01000000
00100000
10000000
00010000
00100000
00001000
,
00010000
00000100
00001000
00000010
00001000
00000100
00010000
00001000
,
00100000
00010000
01000000
00000000
01100000
00000000
00100000
10000000
,
00010000
00000000
00100000
00000000
11000000
00000000
10000000
00010000
,
00100000
00110000
00001000
00110000
,
00001000
00001100
00010000
00001100
,
00010000
00000000
00010000
00001000
00010000
00000100
00001000
00000010
,
00000100
00000001
00000010
00001000
00000010
00000001
00000100
00001000
,
00000100
00000001
00000010
00000010
00000100
00000100
00001000
00001000
,
00000010
00000010
00010000
00010000
00001000
00100000
01000000
10000000
,
00000000
00000000
10010000
00000000
01100000
00000000
00100000
10000000
,
01000000
00000000
11000000
00000000
00110000
00000000
00100000
00001000
,
00010000
00000000
00000100
00010000
00000100
00000000
00001000
00000010
,
00001000
00000000
00000100
00000010
00001000
00000001
00000010
00000100
,
00001000
00000000
00001000
00100000
00001000
00010000
00000100
00001000
,
00000100
00010000
00001000
01000000
10000000
01000000
00010000
00100000
,
00001000
00010000
00000010
00000000
00000100
00010100
00000000
00001000
;

//---------------dance-single - ----------------
#NOTES:
     dance-single:
     :
     Challenge:
     18:
     0.936051,1.326853,0.494863,0.348237,0.536102,715.000000,661.000000,54.000000,38.000000,0.000000,0.000000,0.936051,1.326853,0.494863,0.348237,0.536102,715.000000,661.000000,54.000000,38.000000,0.000000,0.000000:
// measure 0
0000
0000
0000
0000
,  // measure 1
0000
0000
0000
0000
,  // measure 2
0000
0000
0000
0000
,  // measure 3
0000
0000
0000
0000
1010
0001
1100
0001
,  // measure 4
1010
0000
1001
0000
0101
1000
0011
1000
,  // measure 5
0101
0000
0000
0110
0000
0000
1001
0001
0001
1001
0001
0001
,  // measure 6
1001
0000
1000
0000
1000
0000
1001
0000
1000
0000
1000
0000
1001
0000
0000
0010
0000
0000
1001
0000
0000
0100
0000
0000
,  // measure 7
0011
0000
0100
0000
1010
0000
0100
0000
0001
1000
0001
0000
1000
0001
1000
0000
,  // measure 8
0001
1000
0001
0000
1000
0001
1000
0000
0010
0000
0100
0001
0010
0000
0100
0000
,  // measure 9
0010
0100
1000
0000
1001
0000
0000
0000
1010
0000
0000
0000
1000
0000
0100
0000
,  // measure 10
1000
0010
0100
0010
0000
0100
0001
0010
,  // measure 11
0100
1000
0100
1000
0001
0100
1000
0100
,  // measure 12
0010
1000
0001
0010
0001
0010
1000
0010
,  // measure 13
0100
0010
0100
1000
0001
1000
0010
1000
,  // measure 14
0001
0010
0001
1000
0100
0010
0001
1000
,  // measure 15
0100
0000
0010
0000
0002
0000
0203
0000
0310
0100
0010
0000
0100
0010
0100
0000
,  // measure 16
0010
0100
0010
0000
0100
0010
0100
0000
0010
0100
0010
0000
0100
0010
0100
0000
,  // measure 17
0010
1000
0000
0000
0011
0000
0001
0100
,  // measure 18
0001
1000
0000
0000
1100
0000
0000
1000
,  // measure 19
0100
0001
0000
0000
0100
0010
0001
0000
,  // measure 20
0010
0100
1000
0000
0100
1000
0010
0100
,  // measure 21
0001
1000
0000
0000
0001
0010
0100
1000
,  // measure 22
0001
0010
0100
0010
0001
1000
0100
0010
,  // measure 23
0001
1000
0100
0010
0002
0000
0000
0100
,  // measure 24
0000
0000
0000
0000
0010
0000
0000
1003
,  // measure 25
0000
1001
0000
0000
1000
0010
0100
0002
,  // measure 26
0000
0013
0000
0010
0100
0010
0001
2000
,  // measure 27
0000
3001
1001
0000
1000
0010
1000
0200
,  // measure 28
0000
0310
0000
0100
1100
0000
0101
0000
,  // measure 29
1100
0101
0011
1010
,  // measure 30
0010
0000
0110
0000
0000
0000
0100
0000
0001
0000
0001
0000
0010
0000
0000
0001
,  // measure 31
0000
0000
1000
0000
1001
0000
0000
0000
0001
0100
0001
0100
0010
1000
0010
1000
,  // measure 32
0001
1000
0001
1000
0100
0010
0100
0010
0001
0010
0001
0010
0100
1000
0100
1000
,  // measure 33
0001
0100
0001
0100
0010
0100
0010
0100
0001
0100
0001
0100
0010
1000
0010
1000
,  // measure 34
0001
1000
0001
1000
0010
0100
0010
0100
2000
3000
0200
0300
0020
0030
1002
0003
,  // measure 35
1000
0010
1000
0010
0100
0001
0100
0001
0010
0001
0010
0001
1000
0100
1000
0100
,  // measure 36
0010
0100
0010
0100
0010
0001
0010
0001
1000
0001
1000
0001
0100
0001
0100
0001
,  // measure 37
1000
2000
0100
3200
0010
0320
0001
0032
,  // measure 38
1003
0010
1000
0010
1000
0010
1000
0010
1000
0010
1000
0010
1000
0010
1000
0010
,  // measure 39
1000
0000
0001
0100
1000
0000
0100
0000
0001
0000
0001
0010
1000
0000
1000
0000
,  // measure 40
0010
0000
0001
0100
1000
0000
0100
0000
1000
0000
0001
0010
1000
0000
0000
0000
,  // measure 41
0001
0000
1000
0010
0001
0000
0010
0000
1000
0000
1000
0100
0001
0000
0001
0000
,  // measure 42
0100
0000
1000
0010
0001
0000
0010
0000
0001
0000
1000
0100
0001
0000
0000
0000
,  // measure 43
1000
0000
0010
0100
1000
0000
0100
0000
0001
0000
0010
0100
1000
0000
0100
0000
,  // measure 44
0001
0000
0100
0010
0001
0000
1000
0000
0010
0000
0001
0010
0100
0000
0000
0000
,  // measure 45
0010
0000
1000
0010
0001
0000
0100
0000
1000
0000
0001
0100
1000
0000
0010
0000
,  // measure 46
0001
0100
0010
1000
0001
0000
0001
1000
0010
0100
0001
0000
1000
0000
0100
0000
,  // measure 47
1000
0000
0010
0000
0100
0000
0001
0000
0010
0000
0000
0100
0010
0000
0001
0000
,  // measure 48
0100
0000
0001
0000
1000
0000
0100
0000
0010
0000
0000
0100
1000
0000
0100
0000
,  // measure 49
0010
0000
0100
0000
1000
0000
0010
0000
0100
0000
0000
0001
0010
0000
0001
0000
,  // measure 50
0010
0000
0100
0000
0010
0000
0100
0000
1000
0000
0000
0001
0100
0000
0001
0000
,  // measure 51
0010
0000
0001
0000
1000
0000
0100
0000
0010
0000
0000
0100
1000
0000
0010
0000
,  // measure 52
0100
0000
0001
0000
0010
0000
0001
0000
1000
0000
0000
0001
0100
0000
0001
0000
,  // measure 53
0010
0000
0001
0000
1000
0000
0100
0000
0010
0000
0000
0100
0010
0000
0001
0000
,  // measure 54
0100
0000
0001
0000
1000
0000
0100
0000
0010
0000
0000
0100
1000
0100
0000
0000
,  // measure 55
0100
0010
0000
0000
0010
0100
0000
0000
0100
1000
0000
0000
0100
1000
0020
0000
,  // measure 56
0000
0000
0130
0000
0000
0000
0010
1000
0001
0000
0000
0000
1000
0100
0010
0000
,  // measure 57
0000
0000
0000
0100
0010
0000
0001
0000
1000
0000
0001
0000
0000
0000
0010
0100
,  // measure 58
0010
0000
0000
0000
0110
0000
0000
0000
1100
0000
0000
0000
1000
0010
0100
0000
,  // measure 59
0001
0000
0010
0100
1000
0000
0100
0000
1001
0000
0000
0000
0001
0010
0100
0000
,  // measure 60
0010
0000
0001
0100
0010
0000
1000
0000
1001
0000
0000
0000
0001
0000
0010
0000
,  // measure 61
0100
0000
1000
0000
0001
0000
0100
0000
0001
0000
0000
0010
0100
0000
0010
0000
,  // measure 62
0001
0000
0000
0000
1000
0000
0000
0000
0010
0000
0000
0000
0100
0000
0000
0000
0001
0000
0000
0000
0000
0000
2002
3003
1020
0000
0000
0000
0000
0000
0000
0000
,  // measure 63
0100
0230
0000
0000
0000
0300
0102
0000
,  // measure 64
0010
0023
0000
0130
1001
0000
1000
0100
,  // measure 65
0010
0100
0000
0011
0000
0010
0001
0100
,  // measure 66
0001
1000
0000
0100
1001
0000
0001
0100
,  // measure 67
0001
1000
0000
1001
0000
0001
0011
0000
,  // measure 68
1010
0011
1010
1100
,  // measure 69
0101
0000
0001
0001
0000
0010
0001
0100
,  // measure 70
0010
0000
0000
1000
0000
0000
0100
0000
1100
0000
0000
0000
1000
0001
0100
0000
,  // measure 71
0100
0001
1000
0000
1000
0001
0010
0000
0010
0001
1000
0000
0001
0000
1000
0001
,  // measure 72
1000
0000
0001
0000
1000
0001
1000
0000
1001
0000
0000
0000
1100
0000
0000
0000
,  // measure 73
0100
0001
0100
0010
0001
0100
0000
1000
,  // measure 74
0100
0010
1000
0001
0010
0100
2000
3200
,  // measure 75
0320
0031
0020
0000
0130
0000
0010
0001
,  // measure 76
0100
0010
2000
0000
3001
0000
1000
0001
,  // measure 77
0010
0001
1000
0100
0010
0001
0010
0001
,  // measure 78
0100
1000
0100
0010
1000
0001
0010
0020
,  // measure 79
0100
0230
1000
2300
0001
3002
0203
2300
,  // measure 80
3200
0320
2030
0002
0000
3003
1001
0000
,  // measure 81
0001
1000
0010
1000
0000
0000
0101
0000
,  // measure 82
0000
0001
0010
1000
0000
0000
0010
0100
,  // measure 83
1000
0000
0100
1000
0010
0000
0100
0001
,  // measure 84
0010
0100
1000
0001
0000
0000
1000
0001
,  // measure 85
0100
0001
0010
0100
0010
0001
1000
0100
,  // measure 86
0010
0001
1000
0100
0010
0001
2002
0000
,  // measure 87
0000
0000
0000
3003
;
