#VERSION:0.83;
#TITLE:Reflux;
#SUBTITLE:-ROLL SPECIAL-;
#ARTIST:Eagle;
#TITLETRANSLIT:;
#SUBTITLETRANSLIT:;
#ARTISTTRANSLIT:;
#GENRE:;
#ORIGIN:;
#CREDIT:;
#BANNER:Reflux.png;
#BACKGROUND:Reflux-bg.png;
#PREVIEWVID:;
#JACKET:Reflux-jacket.png;
#CDIMAGE:;
#DISCIMAGE:;
#LYRICSPATH:;
#CDTITLE:cdtitle.png;
#MUSIC:12.Reflux.mp3;
#OFFSET:-1.067001;
#SAMPLESTART:25.056000;
#SAMPLELENGTH:14.400002;
#SELECTABLE:YES;
#BPMS:0.000=150.000;
#STOPS:;
#DELAYS:;
#WARPS:;
#TIMESIGNATURES:0.000=4=4;
#TICKCOUNTS:0.000=4;
#COMBOS:0.000=1;
#SPEEDS:0.000=1.000=0.000=0;
#SCROLLS:0.000=1.000;
#FAKES:;
#LABELS:0.000=Song Start;
#BGCHANGES:;
#KEYSOUNDS:;
#ATTACKS:
;

//---------------dance-single - ----------------
#NOTEDATA:;
#CHARTNAME:;
#STEPSTYPE:dance-single;
#DESCRIPTION:;
#CHARTSTYLE:;
#DIFFICULTY:Challenge;
#METER:13;
#RADARVALUES:0.415309,0.630969,0.235497,0.284220,0.300461,358.000000,329.000000,29.000000,35.000000,0.000000,0.000000,44.000000,0.000000,0.000000,0.415309,0.630969,0.235497,0.284220,0.300461,358.000000,329.000000,29.000000,35.000000,0.000000,0.000000,44.000000,0.000000,0.000000;
#CREDIT:;
#NOTES:
// measure 0
0000
0000
0000
0000
,  // measure 1
0000
0000
0000
0000
,  // measure 2
0000
0000
0000
0000
,  // measure 3
0000
0000
0000
0000
,  // measure 4
0001
0000
0000
0001
0000
0000
1000
0000
0000
1000
0000
0000
0001
0000
0000
0000
,  // measure 5
0100
0000
0000
0100
0000
0000
0010
0000
0000
0010
0000
0000
0100
0000
0000
0000
,  // measure 6
0010
0000
0000
0010
0000
0000
1000
0000
0000
1000
0000
0000
0010
0000
0000
0000
,  // measure 7
0100
0000
0000
0100
0000
0000
0001
0000
0000
0001
0000
0000
1000
0000
0000
0000
,  // measure 8
0001
0000
0100
0000
0010
0000
1000
0400
,  // measure 9
0310
0000
0100
0000
1000
0000
0001
0400
,  // measure 10
0310
0000
0100
0000
0001
0000
1000
0400
,  // measure 11
0301
0000
0100
0000
0010
0000
0001
0040
,  // measure 12
1030
0000
0010
0000
0001
0100
1000
0400
,  // measure 13
0310
0000
1000
0000
0001
0010
0100
4000
,  // measure 14
3100
0000
0000
0100
0000
0000
0010
0000
0000
0010
0000
0000
0001
0000
1000
0000
,  // measure 15
0001
0000
0100
0000
1000
0000
0010
0000
0001
0000
1000
0000
0001
1000
0000
0000
,  // measure 16
1001
0000
0000
0000
0101
0000
0000
0000
0040
4000
0000
0000
0000
0000
0000
0000
,  // measure 17
0000
0000
0000
0000
0000
0000
0000
3030
,  // measure 18
1001
0000
0000
0000
1010
0000
0000
0000
0004
0400
0000
0000
0000
0000
0000
0000
,  // measure 19
0000
0000
0000
0000
0000
0000
0000
0303
,  // measure 20
1010
0000
0000
1001
0000
0000
0000
0000
0004
0040
0000
0000
0000
0000
0000
0000
,  // measure 21
0000
0000
0000
0000
0000
0000
0000
0033
,  // measure 22
1000
0000
0001
0100
0001
0000
1000
0010
1000
0000
0000
0000
0001
0000
0020
0030
,  // measure 23
0100
0000
0010
0001
0100
0000
0020
0030
2000
3020
0030
0010
0100
0001
0020
0000
,  // measure 24
0130
0000
0000
0000
0110
0000
0000
0000
0004
4000
0000
0000
0000
0000
0000
0000
,  // measure 25
0000
0000
0000
0000
0000
0000
0000
3003
,  // measure 26
0100
0000
0010
0000
1001
0000
0000
0000
0004
0040
0000
0000
0000
0000
0000
0000
,  // measure 27
0000
0000
0000
0000
0000
0000
0000
0033
,  // measure 28
4002
0000
0000
3003
0000
0000
0100
0000
2004
0000
0000
0000
3003
0000
1000
0000
,  // measure 29
0420
0000
0330
0001
0240
0000
0330
0100
,  // measure 30
1001
0000
0000
0000
1000
0000
0001
0010
0100
0000
4400
0000
0000
0000
3300
0000
,  // measure 31
0011
0000
0000
0000
0110
0000
0010
0100
1000
0000
0010
0100
0000
0001
0010
0000
,  // measure 32
0002
0000
4000
0003
,  // measure 33
3100
0000
0000
1000
0000
0000
0010
0000
0000
0100
0000
0000
0010
0000
1000
0000
,  // measure 34
0001
0000
0010
0000
0000
0001
0000
0000
0100
0000
0000
0010
0000
0000
1000
0000
,  // measure 35
0100
0000
0010
0000
0000
0100
0000
0000
1000
0000
0010
0000
0100
0000
0001
0000
,  // measure 36
0040
0400
0000
0000
0000
0000
0000
0000
0000
0000
0000
0000
0330
0000
0000
0000
,  // measure 37
1000
0000
0000
0001
0000
0000
0010
0000
0000
0001
0000
0000
0100
0000
0001
0000
,  // measure 38
0010
0000
0100
0000
0000
0010
0000
0000
0001
0000
0000
1000
0000
0000
0001
0000
,  // measure 39
0100
0000
0000
0040
0400
0000
0000
0330
1000
0000
0001
0000
0010
0000
0100
0000
,  // measure 40
2000
3200
2000
3300
,  // measure 41
0200
0000
2300
0000
3020
0000
0130
0001
,  // measure 42
2000
0000
0000
0000
,  // measure 43
0002
0000
0000
3003
,  // measure 44
0002
0023
0002
0033
,  // measure 45
0002
0000
0023
0000
0230
0000
0310
0001
,  // measure 46
0200
0000
0000
0000
,  // measure 47
0020
0000
0000
0330
,  // measure 48
1001
0000
0000
0001
0000
0000
0100
0000
0000
0001
0000
0000
0010
0000
0000
0000
,  // measure 49
0100
0000
0000
0010
0000
0000
0001
0000
0000
0010
0000
0000
0100
0000
0000
0000
,  // measure 50
0010
0000
0000
0100
0000
0000
1000
0000
0000
0010
0000
0000
0100
0000
0000
0000
,  // measure 51
0010
0000
0000
0100
0000
0000
0010
0000
0000
1000
0000
0000
0001
0000
0000
0000
,  // measure 52
1000
0100
0010
0100
1000
0010
0100
0000
,  // measure 53
0001
0100
0010
0100
0001
0010
0100
0000
,  // measure 54
0001
0000
0000
1000
0010
0000
0000
0010
0100
0000
0000
0100
0001
0000
0010
0000
,  // measure 55
0001
0000
0100
0000
1000
0000
0010
0000
0001
0000
1000
0000
0001
1000
0000
0000
,  // measure 56
1001
0010
0120
0000
0400
0000
0000
0000
,  // measure 57
0000
0000
0000
0000
0330
0000
0000
0000
0001
0010
0100
0000
1000
0000
0000
0000
,  // measure 58
0001
0000
1000
0000
0110
0000
0000
0000
4000
0400
0000
0000
0000
0000
0000
0000
,  // measure 59
0000
0000
0000
0000
0000
0000
0000
3300
,  // measure 60
0011
0000
0000
0110
0000
0000
0000
0000
0004
0400
0000
0000
0000
0000
0000
0000
,  // measure 61
0000
0000
0000
0303
,  // measure 62
1001
0000
0000
1000
0400
0040
0000
0000
0000
0000
0000
0000
0330
0000
0000
0000
,  // measure 63
0011
0000
0000
0010
0400
4000
0000
0000
0000
0000
0000
0000
3300
0000
0000
0000
,  // measure 64
1000
0000
0001
0000
0010
0000
0001
0000
0100
0000
0010
1000
0000
0010
1000
0000
,  // measure 65
0001
0000
0010
0000
0100
0000
0010
0000
0001
2000
3000
0010
0000
0100
0001
0000
,  // measure 66
0010
0000
0100
0000
0010
0000
0001
0000
0100
0000
0010
1000
0000
0001
0100
0000
,  // measure 67
0001
0000
0010
0000
0100
0000
0010
0000
0001
4000
0004
0000
0000
0000
3003
0000
,  // measure 68
0210
0000
0000
0304
0000
0000
0013
0000
0200
0000
0300
4000
0000
0000
3001
0000
,  // measure 69
0200
0000
0000
0340
0000
0000
1030
0000
0002
0000
0000
4003
0000
0000
3100
0000
,  // measure 70
0020
0000
0000
0000
0130
0000
1000
0010
0100
0000
0404
0000
0000
0000
0000
0303
,  // measure 71
1010
0000
0000
0000
1001
0000
0001
1000
0010
0000
0100
0010
0000
1000
0001
0000
,  // measure 72
0220
0000
0000
0000
,  // measure 73
0000
0000
0000
0000
,  // measure 74
0330
0000
0000
0000
;
