#TITLE:Rebirth (Alternative);
#SUBTITLE:;
#ARTIST:Lenno;
#TITLETRANSLIT:;
#SUBTITLETRANSLIT:;
#ARTISTTRANSLIT:;
#GENRE:;
#CREDIT:;
#BANNER:Rebirth†.png;
#BACKGROUND:Rebirth†-bg.png;
#LYRICSPATH:;
#CDTITLE:;
#MUSIC:Rebirth.ogg;
#OFFSET:2.867998;
#SAMPLESTART:22.838226;
#SAMPLELENGTH:11.427212;
#LASTBEATHINT:1.307754;
#SELECTABLE:YES;
#BPMS:0.000000=42.005001
,17.000000=21.003000
,17.500000=42.005001
,47.500000=21.003000
,48.500000=42.005001
,62.500000=21.003000
,63.500000=42.005001
,79.500000=21.003000
;
#STOPS:
;
#BGCHANGES:;
#KEYSOUNDS:;
#ATTACKS:;

//---------------dance-single - ----------------
#NOTES:
     dance-single:
     :
     Challenge:
     15:
     0.594650,0.733180,0.781960,0.221160,1.251925,527.000000,428.000000,99.000000,28.000000,0.000000,0.000000,0.594650,0.733180,0.781960,0.221160,1.251925,527.000000,428.000000,99.000000,28.000000,0.000000,0.000000:
// measure 0
0000
0000
0000
0000
,  // measure 1
0000
0000
0000
0000
,  // measure 2
0000
0000
0000
0000
1010
1010
0011
0011
,  // measure 3
0101
0000
0101
0000
1100
0000
1100
0000
1000
1000
0001
0001
0010
0010
0100
0100
,  // measure 4
0010
0000
0001
0000
0100
0000
0010
0000
1000
0000
0001
0000
0010
0000
0100
0000
1000
0100
0001
0100
0000
0110
0000
1001
1000
0000
0001
0000
0011
0000
0000
0000
0110
0000
0000
0000
0100
0000
1000
0000
1010
0000
0000
0000
0010
0000
0110
0000
0000
0000
0101
0000
0000
0000
0000
0000
0001
0000
1000
0000
1100
0000
0000
0000
,  // measure 5
0110
0000
0100
1000
1010
0000
0010
0110
0000
1001
0000
1010
1000
0100
0110
0000
1100
0000
0100
0010
0011
0000
0001
0101
0000
1001
0000
0000
0001
1000
1100
0000
,  // measure 6
1010
0000
0000
0000
1000
0000
0010
0000
0110
0000
0000
0000
0100
0000
0110
0000
0000
0000
1000
0010
1000
0001
0010
0100
0020
0000
0000
0000
0001
0000
0000
0000
0100
0000
0000
0000
0031
0000
0010
0000
0100
0000
0000
0000
0010
0000
0011
0000
0000
0000
1010
0000
0000
0000
0000
0000
1000
0000
0001
0000
0010
0000
0000
0000
,  // measure 7
1100
0000
1000
0010
0110
0000
0010
1010
0000
0101
0000
1001
0001
0010
0110
0000
1100
0000
1000
0010
0011
0000
0010
0110
0000
1001
0000
0000
1001
1000
0001
0000
,  // measure 8
1001
0001
1000
0000
1001
0000
0110
0000
1001
0000
0001
0010
1001
0000
1000
0100
0010
0000
0010
0100
1000
0000
1000
0010
0100
0000
0010
0100
0000
0010
0200
0000
,  // measure 9
0301
0000
0000
0000
0000
0100
0020
0000
1030
0000
0001
1000
0100
0000
0010
0001
0100
0000
0100
0001
0010
0000
0010
0100
1000
0000
1000
0100
0010
0200
2300
0000
,  // measure 10
3020
0000
0032
0000
0023
0000
0230
0320
0000
2000
0000
3030
0001
0000
1000
0001
0010
0000
0010
0001
0100
0000
0100
0010
1000
0000
0010
0100
0000
0010
0200
0000
,  // measure 11
0301
0000
0000
0000
0000
0000
0000
0000
0000
0000
0100
0000
0002
0000
0000
0000
1003
0000
0000
0000
0000
0000
0000
0000
1001
0000
0000
0000
0010
0000
0100
0000
0110
0000
0000
0000
1000
0000
0001
0000
1001
0000
0000
0000
0001
0000
0010
0000
0011
0000
0000
0000
0100
0000
0100
0000
0000
1000
0100
0000
0001
0000
0100
0000
,  // measure 12
1000
0000
0010
0100
0000
0200
0000
0000
0310
0000
1000
0000
1010
0000
0000
0000
0101
0000
0000
0000
0001
0000
0010
0000
0110
0000
0000
0000
0100
0000
1001
0000
0000
0000
0110
0000
0000
0000
0000
0000
1000
0000
0001
0000
0011
0000
0000
0000
1100
0000
0000
0000
0100
0000
1000
0000
1010
0000
0000
0000
0010
0000
0110
0000
,  // measure 13
0000
1001
0000
1010
1000
0100
0110
0000
1100
0000
1000
0001
0101
0000
0001
0011
0000
1100
0000
0000
0100
1000
1010
0000
0101
0000
0001
0010
0110
0000
0010
0011
,  // measure 14
0000
1010
0000
1001
0001
1000
1100
0000
1010
0000
0010
1000
0101
0000
0001
1100
0000
0101
0000
0000
0001
0010
1100
0000
1010
0000
0010
0100
1001
0000
0001
1010
,  // measure 15
0000
0000
1100
0000
0000
0000
1010
0000
1000
0000
0001
0000
0011
0000
0000
0000
1001
0000
0000
0000
1000
0000
0100
0000
0011
0000
0000
0000
0100
0000
1100
0000
0000
0000
1010
0000
0000
0000
0000
0000
0000
1000
0001
0000
0010
0000
1000
0000
0010
0000
0001
0200
0010
0000
0000
0000
0301
0000
0010
0000
0100
0000
0010
0000
,  // measure 16
0001
0000
1000
0000
0100
0000
0010
0000
1000
0000
0010
0000
0100
0000
0001
0000
0010
0000
0100
0000
0010
0000
0001
0000
2000
0000
0000
0000
0000
0000
3020
0000
0000
0000
0000
0000
0230
0000
0000
0000
0000
0000
0000
0000
0301
1000
0100
0010
0001
0010
0100
0010
0001
1000
0100
0010
0200
0000
0000
0000
0000
0000
2300
0000
,  // measure 17
0000
0000
0000
0000
3020
0000
0000
0000
0000
0000
0230
0000
0000
0000
0000
0000
0320
0000
0000
0000
2030
0000
0000
3000
0001
1000
0001
0100
0010
0100
0001
1000
0001
0100
0010
1000
0001
0100
0010
1000
0001
0000
0000
0000
1000
0000
1100
0000
0000
0000
0101
0000
0000
0000
1001
0000
0001
0100
1000
0100
0001
0010
1000
0010
,  // measure 18
0001
0100
1000
0100
0001
0010
1000
0010
0001
0100
1000
0100
0001
0010
1000
0010
0001
0100
1000
0100
0001
0010
1000
0010
0002
0000
0000
0000
0000
0000
2003
0000
0000
0000
0000
0000
3010
0100
0010
0000
0000
0000
1001
0000
0000
0000
0000
0000
0000
0000
0000
0000
1000
0010
1000
0100
0010
0000
0000
0000
2001
0000
0000
0000
,  // measure 19
0000
0000
0000
0000
3001
0000
0010
0000
0100
0010
0001
0100
1000
0100
0010
1000
0001
0010
0100
0010
0001
1000
0001
0100
0010
0000
0000
0000
0200
0000
0000
0000
0000
0000
0000
0000
0310
0000
1000
0000
1001
0000
0000
0000
1000
0000
1010
0000
0000
0000
0011
0000
0000
0000
1001
0000
0000
0000
0001
0000
1000
0000
0000
0000
,  // measure 20
0010
0000
0000
1000
0000
1000
0000
0000
0000
0000
0001
0000
0010
0000
0000
0000
0100
0000
0000
0010
0000
0001
0000
0001
0000
0000
0001
0000
1000
0000
0000
0000
0010
0000
0000
0100
0000
0010
0000
0000
0000
0000
0100
0000
0001
0000
0000
0000
0010
0000
0000
0100
0000
0010
0000
0100
0000
0000
0000
0000
0000
0000
0000
0000
;
