#TITLE:Peacock (Alternative);
#SUBTITLE:;
#ARTIST:7 Minutes Dead;
#TITLETRANSLIT:;
#SUBTITLETRANSLIT:;
#ARTISTTRANSLIT:;
#GENRE:;
#CREDIT:;
#BANNER:[Round 1 Singles] - Peacock.png;
#BACKGROUND:[Round 1 Singles] - Peacock-bg.png;
#LYRICSPATH:;
#CDTITLE:;
#MUSIC:Peacock.ogg;
#OFFSET:-8.001000;
#SAMPLESTART:24.000000;
#SAMPLELENGTH:12.000000;
#SELECTABLE:YES;
#BPMS:0.000000=120.000000
;
#STOPS:78.000000=0.500000,
125.000000=0.500000,
128.500000=0.500000,
131.000000=0.250000,
131.500000=0.250000,
134.750000=0.250000,
142.000000=0.500000,
144.500000=0.250000,
145.000000=0.250000,
148.250000=0.250000,
151.000000=0.500000,
159.000000=0.250000,
166.000000=0.250000,
174.000000=0.250000,
189.500000=0.250000,
196.500000=0.250000,
204.500000=0.250000,
211.500000=0.250000
;
#BGCHANGES:;
#KEYSOUNDS:;
#ATTACKS:;

//---------------dance-single - ----------------
#NOTES:
     dance-single:
     :
     Challenge:
     14:
     0.591539,0.605933,0.520554,0.457457,0.481118,525.000000,459.000000,66.000000,58.000000,0.000000,0.000000,0.591539,0.605933,0.520554,0.457457,0.481118,525.000000,459.000000,66.000000,58.000000,0.000000,0.000000:
// measure 0
1000
0000
0000
1000
0000
0000
1000
0000
0001
0100
0001
0100
0002
0000
0023
0000
,  // measure 1
0130
0000
0000
0100
0000
0000
0100
0000
0010
0001
0000
1000
0000
1001
0000
0000
,  // measure 2
0001
0000
0000
0001
0000
0000
0001
0000
1000
0010
1000
0010
2000
0000
3200
0000
,  // measure 3
0310
0000
0100
0000
1000
0001
0000
0001
0100
0000
0010
1000
0100
0000
0100
1000
,  // measure 4
0010
0000
0000
0010
0000
0000
0010
0000
1000
0001
1000
0001
2000
0000
3002
0000
,  // measure 5
0013
0000
0000
0010
0000
0000
0010
0000
0100
0010
0000
0001
0000
1001
0000
0000
,  // measure 6
1000
0000
0000
1000
0000
0000
1000
0000
0001
0010
0001
0010
0002
0000
2003
0000
,  // measure 7
3100
0000
0010
0000
0000
0001
0100
0010
1000
0000
1000
0001
0010
0000
0000
0000
,  // measure 8
1001
0000
0001
0100
0010
0000
1001
0000
1000
0100
0001
0100
2000
0000
3020
0000
,  // measure 9
0130
0000
0010
1000
0001
0000
0010
0000
0100
1000
0000
1100
0000
0101
0000
0000
,  // measure 10
1001
0000
0001
1000
0010
0000
0100
0000
0001
0010
1000
0010
0002
0000
0023
0000
,  // measure 11
0130
0000
0000
0010
0000
0000
0001
0000
0000
0000
0000
0000
0001
0000
1000
0000
0001
0000
1000
0000
0000
0010
0000
0000
1000
0000
0000
0000
0000
0000
0001
0000
0000
0010
0000
0000
0200
0000
0000
0000
0000
0000
0310
0000
0000
0100
0000
0000
,  // measure 12
1000
0000
0100
1000
0010
0000
0100
0000
0001
0010
1000
0010
0002
0000
2003
0000
,  // measure 13
3010
0000
1000
0001
0010
0000
0100
0000
0010
0001
0000
0011
0000
1100
0000
0000
,  // measure 14
0100
0000
1000
0010
0100
0000
0010
0000
0100
1000
0100
0001
0020
0000
0032
0000
,  // measure 15
1003
0000
0000
0001
0000
0000
0010
0000
0000
0000
0000
0000
0100
0000
0010
0000
0100
0000
0010
0000
0000
0001
0000
0000
0100
0000
0000
0000
0000
0000
0100
0000
0000
0010
0000
0000
1000
0000
0000
0000
0000
0000
1000
0000
0000
0001
0000
0000
,  // measure 16
0020
0001
0100
0001
,  // measure 17
0100
0000
0000
0000
0031
0000
0001
0010
0100
0000
1000
0000
0001
0000
0000
0000
,  // measure 18
1000
0000
0001
0000
0100
0000
0001
0000
0010
0000
0000
0100
0000
0000
0010
0000
,  // measure 19
0001
0000
0000
0000
1000
0000
0000
0000
0010
0000
0000
0000
0100
0000
0010
0000
2000
3000
0000
0000
0000
0000
0000
0000
0001
0000
0000
0000
0010
0000
0000
0000
,  // measure 20
0001
0000
0100
0020
0000
0000
1030
0000
0100
0000
1000
0000
0010
0000
0100
0000
,  // measure 21
0010
0000
0100
0001
1000
0000
0100
0020
0000
0000
0031
0000
1000
0000
0100
0000
,  // measure 22
0001
0000
0100
0000
0010
0000
0000
0001
0000
0000
0100
0000
0010
0000
1000
0000
,  // measure 23
0100
0000
1000
0001
0200
0000
0301
1000
0200
0000
0310
0100
1100
0000
0011
0000
,  // measure 24
2000
0000
0000
0000
0000
0000
3001
0000
0000
0100
0000
0000
0010
1000
0010
0100
0000
0000
0010
0000
0000
1000
0000
0000
,  // measure 25
0001
0000
0200
0000
0000
0000
0310
2000
0000
0000
3100
0000
0010
0000
0100
0000
,  // measure 26
1000
0000
0001
0000
1000
0000
0010
1000
0000
0001
0100
0000
0001
0000
0010
0000
,  // measure 27
0100
0000
0000
0010
0001
0100
0010
0000
0000
0100
0010
1000
0001
0000
0000
1000
0001
0010
0100
0000
0000
1100
0000
0000
,  // measure 28
0000
0000
0000
0000
0000
0000
0100
0000
0000
0010
0000
0000
0001
0100
0001
1000
0000
0000
0100
0000
0000
1000
0000
0000
,  // measure 29
0010
0000
0200
0000
0000
0000
0310
0100
0001
0000
2000
3000
0100
0000
0010
0000
,  // measure 30
0001
0000
1000
0000
0001
0000
0100
0001
0000
0010
0100
0000
0010
0000
0001
0000
,  // measure 31
0100
0000
0010
1000
0200
0000
0300
0000
0011
0000
0010
0000
0011
0000
0001
0000
,  // measure 32
0011
1001
1100
0100
1100
1000
1100
1001
,  // measure 33
0101
0000
0000
0000
1010
0000
0000
0000
0101
0000
0000
1010
0000
0000
0001
0100
,  // measure 34
0000
0100
0001
0000
0010
0000
0110
0000
0110
0000
0100
1000
0001
0000
1001
0000
,  // measure 35
0001
1001
1000
1001
0011
0102
0000
0103
,  // measure 36
0010
1000
1001
0000
0110
0000
1001
0000
0000
0000
1001
0000
0000
0000
0101
0000
,  // measure 37
0000
1010
0000
0000
1000
0100
0000
0100
0010
0000
0001
0000
2200
3300
0000
0000
,  // measure 38
2100
0000
3020
0000
0230
0000
1300
0100
,  // measure 39
0101
0000
0001
0000
0011
0000
0010
0001
1000
0100
0020
0000
0130
0000
0010
0001
,  // measure 40
0000
0011
0000
1010
0000
0000
1001
0000
0000
0000
0001
0000
0010
0000
0210
0000
,  // measure 41
0000
0000
0000
1300
0000
0000
0010
0100
0001
2000
0000
0000
0100
0000
0000
3010
0000
0000
0201
0000
0000
0000
0000
0000
,  // measure 42
0302
0000
2003
0000
3100
0110
0100
1100
,  // measure 43
0011
0000
0010
0001
1000
0010
0100
0000
0101
0000
0001
0010
0000
0011
0000
1020
,  // measure 44
0000
0230
0000
0301
1000
1001
0000
1000
,  // measure 45
0001
0010
0001
1000
0000
0000
0001
0000
0000
1010
0000
0000
0101
0000
0000
2001
0000
0000
0000
0000
0000
3200
0000
0000
,  // measure 46
0000
0000
0302
0000
0000
0000
0103
0000
0010
0000
0011
0000
0020
0000
0130
0010
,  // measure 47
0001
1000
0010
1000
0001
0000
1001
0000
0001
0100
0000
0110
0000
1010
0000
0000
,  // measure 48
1100
0000
0000
0000
0000
0000
0200
0000
0000
0320
0000
0000
0031
0000
0000
0000
0000
0000
1100
0000
0000
1000
0001
1000
,  // measure 49
0100
0110
1001
0201
0000
2300
0000
3200
,  // measure 50
0000
0000
0320
0000
2030
0000
3100
0000
0001
0000
0100
0000
0010
0001
1000
0100
,  // measure 51
0010
0000
1001
0000
1000
0100
1000
0100
0010
0200
0000
0000
1300
0000
0000
0000
,  // measure 52
0100
0000
0000
1000
0000
0000
0020
0000
0000
0000
0000
0000
0130
0000
0000
0000
0000
0001
1000
0000
0000
0200
0000
0000
,  // measure 53
0320
0000
0000
0100
0000
0000
0000
0100
,  // measure 54
0000
0000
0000
0100
0000
0000
0000
0130
;
