#VERSION:0.83;
#TITLE:ORION.78(AMeuro-MIX) (Alternative);
#SUBTITLE:;
#ARTIST:RE-VENGE;
#TITLETRANSLIT:;
#SUBTITLETRANSLIT:;
#ARTISTTRANSLIT:;
#GENRE:;
#ORIGIN:;
#CREDIT:;
#BANNER:ORION.78(AMeuro-MIX).png;
#BACKGROUND:ORION.78(AMeuro-MIX)-bg.png;
#PREVIEWVID:;
#JACKET:ORION.78(AMeuro-MIX)-jacket.png;
#CDIMAGE:;
#DISCIMAGE:;
#LYRICSPATH:;
#CDTITLE:;
#MUSIC:ORION.78(AMeuro-MIX).ogg;
#OFFSET:0.000000;
#SAMPLESTART:29.709000;
#SAMPLELENGTH:15.000000;
#SELECTABLE:YES;
#BPMS:0.000=105.109,
8.000=104.998,
16.000=209.996,
88.000=157.497,
106.000=78.749,
109.000=209.996,
141.000=104.998,
145.000=209.996,
217.000=157.497,
241.000=209.996,
281.000=104.998;
#STOPS:;
#DELAYS:;
#WARPS:;
#TIMESIGNATURES:0.000=4=4;
#TICKCOUNTS:0.000=4;
#COMBOS:0.000=1;
#SPEEDS:0.000=1.000=0.000=0;
#SCROLLS:0.000=1.000;
#FAKES:;
#LABELS:0.000=Song Start;
#BGCHANGES:;
#KEYSOUNDS:;
#ATTACKS:
;

//---------------dance-single - ----------------
#NOTEDATA:;
#CHARTNAME:;
#STEPSTYPE:dance-single;
#DESCRIPTION:;
#CHARTSTYLE:;
#DIFFICULTY:Challenge;
#METER:14;
#RADARVALUES:0.697917,0.804948,0.760417,0.093750,0.057292,469.000000,396.000000,73.000000,9.000000,0.000000,0.000000,0.000000,0.000000,0.000000,0.697917,0.804948,0.760417,0.093750,0.057292,469.000000,396.000000,73.000000,9.000000,0.000000,0.000000,0.000000,0.000000,0.000000;
#CREDIT:Pandemonium X;
#DISPLAYBPM:105.000000;
#NOTES:
// measure 0
0000
0000
0000
0000
,  // measure 1
0000
0000
0000
0000
,  // measure 2
0000
0000
0000
0000
,  // measure 3
0000
0000
0000
0000
,  // measure 4
1000
0000
0001
0100
0010
0000
0100
0001
,  // measure 5
1000
0000
0100
1000
0001
0000
0100
0010
,  // measure 6
1000
0000
0100
0010
0001
0000
0010
0001
,  // measure 7
1000
0000
0010
0100
0001
1000
0100
0010
,  // measure 8
0001
0000
1000
0001
0100
0000
1000
0100
,  // measure 9
0001
0000
1000
0001
0010
0000
1000
0010
,  // measure 10
0001
0000
1000
0010
1000
0000
0001
0100
,  // measure 11
0001
0010
0100
1000
0001
0000
1000
0001
,  // measure 12
1000
1001
0001
0100
0001
0000
1000
0001
,  // measure 13
1000
0100
0010
0001
1000
0010
0100
0001
,  // measure 14
1000
0100
0010
0001
1000
0010
0100
0001
,  // measure 15
1000
0100
0010
0001
1000
0010
0100
0001
,  // measure 16
1000
0000
0011
0000
1100
0000
0100
1000
,  // measure 17
0010
0000
0110
0000
0101
0000
0001
1000
,  // measure 18
0100
0000
1001
0000
1100
0000
1000
0010
,  // measure 19
0100
0000
0001
0010
0110
0000
0100
1000
,  // measure 20
1100
0000
1000
0010
1010
0000
0010
0100
,  // measure 21
0110
0000
0100
0001
0101
0000
0001
0010
,  // measure 22
0110
0000
0100
1000
0000
1000
1010
0000
,  // measure 23
0100
0001
0000
0001
1001
0000
1000
0001
,  // measure 24
0000
0010
0110
0000
0100
1000
0000
1000
,  // measure 25
1010
0000
0010
0100
0000
0001
0011
0000
,  // measure 26
0010
0000
0100
0000
0000
0000
1000
0000
1100
0000
0001
0101
0000
1000
1100
0000
,  // measure 27
0001
0101
0000
0000
1001
0000
0000
0000
0001
0010
0001
0000
2000
3000
0001
0000
,  // measure 28
0100
0000
0000
0000
0000
0000
0000
0000
0010
0100
0010
0000
2000
0000
0001
0000
,  // measure 29
3001
0000
0000
0000
0000
0000
0000
0000
1000
0100
1000
0000
0100
0000
0000
0000
,  // measure 30
0020
0030
0200
1300
0001
0000
1001
0000
,  // measure 31
0000
0000
1000
0001
1100
0000
1000
0001
,  // measure 32
0110
0000
1000
0010
0101
0000
0001
0010
,  // measure 33
1100
0000
1000
0010
0101
0000
0001
0010
,  // measure 34
0110
0000
0100
1000
1010
0000
0010
0100
,  // measure 35
1001
0000
0000
0001
0000
0000
0100
0000
1000
0010
0000
0010
,  // measure 36
0001
0000
1001
0000
1000
0010
0110
0000
,  // measure 37
0100
0000
0011
0000
0010
0100
1100
0000
,  // measure 38
1000
0001
0101
0000
0100
0010
1010
0000
,  // measure 39
1000
0001
0011
0000
0010
0100
1100
0000
,  // measure 40
1000
0010
0110
0000
0100
0001
0011
0000
,  // measure 41
0010
0100
1100
0000
1000
0010
1010
0000
,  // measure 42
0010
0100
0001
0000
1000
0001
0010
0000
,  // measure 43
0100
0010
0001
1000
0010
0100
0001
0000
,  // measure 44
1000
0001
0010
0110
0100
1000
0100
0010
,  // measure 45
0100
1000
0001
0100
0010
1000
0001
0010
,  // measure 46
0100
1000
0001
0100
0010
1000
0001
0010
,  // measure 47
0100
1000
0001
0100
0010
1000
0001
0010
,  // measure 48
0100
1000
0001
0000
1010
0000
0101
0000
,  // measure 49
0001
0010
0100
0000
0110
0000
1100
0000
,  // measure 50
1000
0010
0100
0000
0110
0000
0101
0000
,  // measure 51
0001
0010
0100
0000
0010
0000
0110
0000
,  // measure 52
0100
1000
1010
0000
0010
0100
0101
0000
,  // measure 53
0001
0010
0110
0000
0100
1000
1100
0000
,  // measure 54
1000
0001
1001
0000
0001
0010
0000
0100
,  // measure 55
0110
0000
0100
1000
0000
0010
1010
0000
,  // measure 56
1000
0001
0000
0010
0110
0000
0100
1000
,  // measure 57
0000
1000
1010
0000
0010
0100
0000
0100
,  // measure 58
0101
0000
0001
1000
0000
0001
0011
0000
,  // measure 59
1000
1010
0000
0001
0011
0000
1000
1010
,  // measure 60
0000
0000
0000
0000
1001
0000
0000
0000
1000
0010
1000
0000
0020
0000
0000
0000
,  // measure 61
0130
0000
0000
0000
0000
0000
0000
0000
0001
0100
0001
0000
0020
0000
0000
0000
,  // measure 62
0130
0000
0000
0000
1000
0000
0000
0000
0001
1000
0001
0000
0010
0000
0000
0000
,  // measure 63
0200
0300
2000
3000
0010
0000
0100
0000
,  // measure 64
0001
0000
1000
0001
0011
0000
1000
0010
,  // measure 65
0110
0000
0100
0001
0011
0000
0100
1000
,  // measure 66
1100
0000
0000
0000
0100
0100
0100
0000
,  // measure 67
1001
0000
0001
0100
1000
0100
0001
0000
,  // measure 68
0001
0010
1000
0010
0001
0000
0001
0100
,  // measure 69
1000
0100
0001
0010
1000
0010
0012
0000
,  // measure 70
0000
0003
0000
0000
;
