#VERSION:0.83;
#TITLE:Nu Era (Alternative);
#SUBTITLE:;
#ARTIST:SPARKER;
#TITLETRANSLIT:;
#SUBTITLETRANSLIT:;
#ARTISTTRANSLIT:;
#GENRE:;
#ORIGIN:;
#CREDIT:;
#BANNER:Nu Era.png;
#BACKGROUND:Nu Era-bg.png;
#PREVIEWVID:;
#JACKET:Nu Era-jacket.png;
#CDIMAGE:;
#DISCIMAGE:;
#LYRICSPATH:;
#CDTITLE:cdtitle.png;
#MUSIC:Nu Era.mp3;
#OFFSET:-0.145000;
#SAMPLESTART:23.454054;
#SAMPLELENGTH:12.000000;
#SELECTABLE:YES;
#BPMS:0.000=175.000;
#STOPS:7.500=1.371,
11.500=1.371,
15.500=1.371,
19.500=1.028,
24.500=1.028,
29.500=1.028,
34.500=1.028,
39.500=1.028;
#DELAYS:;
#WARPS:;
#TIMESIGNATURES:0.000=4=4;
#TICKCOUNTS:0.000=4;
#COMBOS:0.000=1;
#SPEEDS:0.000=1.000=0.000=0;
#SCROLLS:0.000=1.000;
#FAKES:;
#LABELS:0.000=Song Start;
#BGCHANGES:;
#KEYSOUNDS:;
#ATTACKS:
;

//---------------dance-single - ----------------
#NOTEDATA:;
#CHARTNAME:;
#STEPSTYPE:dance-single;
#DESCRIPTION:;
#CHARTSTYLE:;
#DIFFICULTY:Challenge;
#METER:14;
#RADARVALUES:0.586498,0.969016,0.289799,0.128800,0.639973,510.000000,474.000000,36.000000,16.000000,16.000000,0.000000,0.000000,0.000000,0.000000,0.586498,0.969016,0.289799,0.128800,0.639973,510.000000,474.000000,36.000000,16.000000,16.000000,0.000000,0.000000,0.000000,0.000000;
#CREDIT:Pandemonium X;
#NOTES:
// measure 0
0000
0000
0000
0000
,  // measure 1
0000
0000
0000
0000
,  // measure 2
0000
0000
0000
0000
,  // measure 3
0000
0000
0000
0000
,  // measure 4
0000
0000
0000
0000
,  // measure 5
0000
0000
0101
0001
0001
0001
0001
0001
,  // measure 6
0001
0001
MMMM
0000
1100
0100
0100
0100
,  // measure 7
0100
0100
0100
0100
MMMM
0000
0011
0010
,  // measure 8
0010
0010
0010
0010
0010
0010
MMMM
0000
,  // measure 9
1001
1000
1000
1000
1000
1000
1000
2000
,  // measure 10
3000
0000
0001
0100
0010
1000
0010
0100
,  // measure 11
0000
0001
0000
0010
0100
0000
0010
0000
0100
0000
1000
0000
0010
0000
0100
0000
,  // measure 12
0000
0010
0000
0000
0010
0000
1000
0000
0001
0000
1000
0000
0100
0000
0010
0000
,  // measure 13
0000
0100
0000
1000
0001
0000
0100
0000
0010
0000
1000
0000
0100
0000
0010
0000
,  // measure 14
0000
0100
0000
0000
0100
0000
0100
0000
0010
0000
0001
0000
1000
0000
1000
0000
,  // measure 15
0001
0010
0100
0100
0010
0001
1000
1000
,  // measure 16
0001
0100
0110
0110
0110
0110
0110
0110
,  // measure 17
0110
0000
0110
0000
0100
0010
0000
1010
0000
1000
0001
0010
0000
1100
0000
0100
,  // measure 18
0010
0000
0001
1000
0001
0000
0000
0000
0100
0000
0000
0001
0000
0010
0000
0000
,  // measure 19
0100
0000
0000
0000
2100
0000
0000
0000
3001
0000
0000
0100
0000
0001
0000
0000
,  // measure 20
0100
0000
0010
0000
1000
0000
0000
0000
0100
0000
0000
0010
0000
0100
0000
1000
,  // measure 21
0010
0000
0100
0000
0001
0000
0000
0000
1000
0000
0000
0001
0000
0010
0000
0001
,  // measure 22
0100
0010
0000
0010
0100
0000
0000
0000
0010
0000
0000
1000
0000
0100
0000
0010
,  // measure 23
0100
0000
1000
0000
0001
0000
0000
0000
0100
0000
0000
0001
0000
0010
0000
0100
,  // measure 24
0010
0001
0000
0001
0010
0000
0000
0000
0100
0000
0000
1000
0000
0001
0000
0100
,  // measure 25
0010
0000
1000
0000
0100
0010
0000
0011
0000
0001
0010
0100
0000
1100
0000
0100
,  // measure 26
0010
0000
0100
1000
0001
0000
0000
0000
0100
0000
0000
0010
0000
1000
0000
0000
,  // measure 27
0001
1000
0000
1000
0002
0000
0000
0000
0013
0000
0000
0100
0000
1000
0000
0000
,  // measure 28
0001
0100
0000
0100
0001
0000
0000
0000
1000
0000
0000
0100
0000
0010
0000
0100
,  // measure 29
1000
0000
0001
0000
0000
0000
0000
0000
0100
0000
0000
0010
0000
1000
0000
0000
,  // measure 30
0001
0010
0000
0010
0100
0000
0000
0000
0010
0000
0000
0001
0000
1000
0000
0000
,  // measure 31
0001
0000
1000
0000
0000
0000
0000
0000
0100
0000
0000
0010
0000
0001
0000
0000
,  // measure 32
1000
0010
0000
0010
0100
0000
0000
0000
0010
0000
0000
1000
0000
0100
0000
0000
,  // measure 33
1000
0000
0000
0000
0001
0100
0000
0110
0000
0100
0010
1000
0000
1001
0000
0001
,  // measure 34
0010
0000
0100
0000
1100
0000
0000
0000
0100
0000
0000
1000
0000
0000
1001
0000
,  // measure 35
0000
1010
0000
0000
0000
0000
0000
0000
0101
0000
0001
0010
0000
0001
0010
0000
,  // measure 36
1100
0000
0000
0000
0001
0000
0000
0000
1000
0000
0000
0001
0000
0000
0011
0000
,  // measure 37
0000
1100
0000
0000
0000
0000
0000
0000
1000
0000
0000
0001
0000
0000
1010
0000
,  // measure 38
0000
0101
0000
0000
0010
0000
0000
0000
0100
0000
0000
1000
0000
0000
0011
0000
,  // measure 39
0000
1100
0000
0100
0010
0000
0000
0000
0001
0000
0000
1000
0010
0100
0000
0000
,  // measure 40
0100
1001
0210
0001
,  // measure 41
0310
1000
0000
0000
0001
0000
0000
0000
1000
0000
0000
0000
0001
0000
0000
0000
,  // measure 42
1000
0000
0010
0010
1000
0100
0100
0010
,  // measure 43
0001
0010
0000
0100
1000
0000
1000
0000
0100
0000
0010
0000
0010
0000
0001
0000
,  // measure 44
1000
0001
0000
0001
0100
0000
0100
0000
0010
0000
1000
0000
1000
0000
0001
0000
,  // measure 45
0010
0001
0000
0010
0100
0000
0100
1000
0000
0010
0100
0000
0100
0000
0010
1000
,  // measure 46
0001
0000
0001
0010
0200
0000
0000
0000
0000
0000
0000
0000
0000
0000
0000
0000
,  // measure 47
0000
0000
0000
0000
,  // measure 48
0300
0000
0000
0000
0012
0000
0000
0000
0010
0000
0000
0010
0000
0000
0000
0000
,  // measure 49
1000
0000
0000
1000
0000
0000
0000
0000
0010
0000
0000
0010
0000
0000
0000
0000
,  // measure 50
0103
0000
0000
0000
2100
0000
0000
0000
0100
0000
0000
0100
0000
0000
0000
0000
,  // measure 51
0001
0000
0000
0001
0000
0000
0000
0000
0100
0000
0000
0100
0000
0000
0000
0000
,  // measure 52
0010
0000
0000
0000
0000
0000
0000
0000
0001
0000
0000
0001
0000
0000
0000
0000
,  // measure 53
0100
0000
0000
0100
0000
0000
0000
0000
0001
0000
0000
0001
0000
0000
0000
0000
,  // measure 54
3010
0000
0000
0000
0002
0000
0000
0000
0100
0000
0000
0100
0000
0000
0000
0000
,  // measure 55
0010
0000
0000
0010
0000
0000
0000
0000
0100
0000
0000
0100
0000
0000
0000
0000
,  // measure 56
1003
0000
0000
0000
2000
0000
0000
0000
0100
0000
0000
0100
0000
0000
0000
0000
,  // measure 57
0010
0000
0000
0010
0000
0000
0000
0000
0001
0000
0000
0001
0000
0000
0000
0000
,  // measure 58
3001
0000
0000
0000
0002
0000
0000
0000
1000
0000
0000
1000
0000
0000
0000
0000
,  // measure 59
0100
0000
0000
0100
0000
0000
0000
0000
0010
0000
0000
0010
0000
0000
0000
0000
,  // measure 60
0100
0203
0000
0000
,  // measure 61
0000
0000
0000
0000
0000
0000
0000
0300
,  // measure 62
0110
0000
0100
0010
1000
0000
0001
0000
0010
0001
0000
0100
0000
0000
0100
0000
,  // measure 63
0010
0000
1000
0000
0001
0000
0010
0000
0100
0010
0000
0001
0000
0000
1000
0000
,  // measure 64
0100
0000
0010
0000
0100
0000
1000
0000
0010
1000
0000
0001
0000
0000
0010
0000
,  // measure 65
0001
0000
0100
0000
0001
0000
0010
0000
0100
0010
0000
0001
0000
0000
1000
0000
,  // measure 66
0001
0000
0010
0000
0001
0000
1000
0000
0010
1000
0000
0010
0000
0000
0100
0000
,  // measure 67
0010
0000
1000
0000
0001
0000
0010
0000
0100
1000
0000
0100
0000
0000
0010
0000
,  // measure 68
0100
0000
1000
0000
0010
0000
0100
0000
0001
0010
0000
0100
0000
0000
0010
0000
,  // measure 69
0001
0000
1000
0000
0010
0000
0100
0000
0001
0010
0000
0100
2000
0000
0000
0000
,  // measure 70
3002
0000
0203
0000
0310
0000
1000
0000
0100
0010
0000
0100
0000
0000
1000
0000
,  // measure 71
0010
0100
0000
0001
0000
0000
0010
0000
0001
0100
0000
0010
0000
0100
0001
0000
,  // measure 72
1000
0000
0100
0000
0010
0000
0100
0000
1000
0010
0000
0100
0000
0000
0001
0000
,  // measure 73
0010
0001
0000
0100
0000
0000
0010
0000
1000
0001
0000
0010
0000
0100
0010
0000
,  // measure 74
0001
0000
1000
0000
0010
0000
0100
0000
0001
0010
0000
0100
0000
0000
0010
0000
,  // measure 75
0001
0100
0000
0010
0000
0000
0100
0000
0010
1000
0000
0001
0000
0010
0100
0000
,  // measure 76
0010
0000
0001
0000
1000
0000
0001
0000
0100
0001
0000
0010
0000
0000
0100
0000
,  // measure 77
1000
0010
0000
0100
0000
0000
0010
0000
1000
0001
0000
0010
0000
0000
0100
0000
,  // measure 78
0110
0000
0001
2000
0002
0000
0000
0000
0000
0000
0000
0000
0000
0000
0000
0000
,  // measure 79
0000
0000
0000
0000
,  // measure 80
0000
0000
0000
3003
MMMM
0000
0000
0000
0000
0000
0000
0000
0000
0000
0000
0000
;
