#TITLE:New Bibi Hendl (Alternative);
#SUBTITLE:;
#ARTIST:Takeo Ischi;
#TITLETRANSLIT:;
#SUBTITLETRANSLIT:;
#ARTISTTRANSLIT:;
#GENRE:;
#CREDIT:;
#BANNER:New Bibi Hendl.png;
#BACKGROUND:New Bibi Hendl-bg.png;
#LYRICSPATH:;
#CDTITLE:cdtitle.png;
#MUSIC:New Bibi Hendl (English).ogg;
#OFFSET:1.535001;
#SAMPLESTART:14.711599;
#SAMPLELENGTH:14.436090;
#LASTBEATHINT:1.185919;
#SELECTABLE:YES;
#BPMS:0.000000=133.000000
;
#STOPS:
;
#BGCHANGES:;
#KEYSOUNDS:;
#ATTACKS:;

//---------------dance-single - ----------------
#NOTES:
     dance-single:
     :
     Challenge:
     13:
     0.510694,0.702112,0.385776,0.034291,0.235752,417.000000,372.000000,45.000000,4.000000,0.000000,0.000000,0.510694,0.702112,0.385776,0.034291,0.235752,417.000000,372.000000,45.000000,4.000000,0.000000,0.000000:
// measure 0
0000
0000
0000
0000
,  // measure 1
0000
0000
0000
0000
,  // measure 2
0000
0000
0000
0000
,  // measure 3
0000
0000
0000
0000
,  // measure 4
0000
0000
0000
0000
,  // measure 5
0001
0100
0000
0001
0000
0010
0000
0100
,  // measure 6
0010
0001
1000
0001
0000
0000
0000
0000
,  // measure 7
1000
0010
0000
1000
0000
0001
0000
1000
,  // measure 8
0100
0010
0001
1000
0000
0000
0000
0010
,  // measure 9
0100
0001
0010
0001
,  // measure 10
1000
0000
0000
0100
1000
0000
0001
0000
0100
0000
0000
0000
0101
0000
0000
0000
,  // measure 11
0001
0010
0001
1000
,  // measure 12
0010
0000
0000
0100
0010
0000
1000
0000
0001
0000
0000
0000
1001
0000
0000
0000
,  // measure 13
1100
0000
0000
1000
0100
0001
0100
0010
,  // measure 14
0011
1010
0011
0000
,  // measure 15
1001
0000
0000
0001
0100
1000
0100
0001
,  // measure 16
0101
0000
0000
0000
1100
0000
0000
0000
1001
0000
0000
0000
0000
0000
0001
1000
,  // measure 17
0010
0000
1000
0000
0001
0000
1000
0001
0010
0000
0001
0000
1000
0000
0001
1000
,  // measure 18
0010
0000
1000
0000
0001
0000
1000
0001
0010
0000
0001
0000
1000
0000
0000
0000
,  // measure 19
0001
0000
1000
0000
0001
0000
1000
0001
0010
0000
0001
0000
1000
0000
0001
1000
,  // measure 20
0010
0000
0100
0000
0010
0000
0100
0000
0010
0100
0000
0100
0010
0000
0100
0001
,  // measure 21
0010
0000
0100
0000
1000
0000
0100
1000
0010
0000
0100
0000
0001
0000
1000
0001
,  // measure 22
0010
0000
0100
0000
0010
0000
0001
0100
0001
0000
1000
0000
0100
0000
0000
0000
,  // measure 23
0010
0000
0001
0000
0100
0000
0010
0100
0001
0000
1000
0000
0100
0000
0010
0000
,  // measure 24
0200
0000
0000
0000
0000
0010
0010
0310
,  // measure 25
1001
0001
0000
1000
0000
0010
0000
0100
,  // measure 26
0010
1000
0100
0010
0000
0000
0000
0000
,  // measure 27
0110
0000
1001
0000
,  // measure 28
0110
0000
0000
0000
1001
0000
0000
0000
0110
0000
0000
1000
0001
0000
1000
0000
,  // measure 29
0001
0100
0000
0101
0000
1010
0000
0001
,  // measure 30
0010
1000
0010
0001
0000
0000
0000
0000
,  // measure 31
1000
0001
0000
1100
0000
0101
0000
1000
,  // measure 32
0100
0001
0100
1000
0000
0000
0000
0000
,  // measure 33
0001
0100
1000
0100
,  // measure 34
0010
0000
0000
1000
0010
0000
1000
0000
0100
0000
0000
0000
1100
0000
0000
0000
,  // measure 35
1000
0100
0001
0100
,  // measure 36
0010
0000
0000
0001
0100
0000
0001
0000
0010
0000
0000
0000
0011
0000
0000
0000
,  // measure 37
1001
0000
0000
0001
0100
1000
0100
0001
,  // measure 38
0011
1100
0011
0000
,  // measure 39
1001
0000
0000
1000
0010
0001
0010
1000
,  // measure 40
1010
0000
0000
0000
0011
0000
0000
0000
1001
0000
0000
0000
0000
0000
0001
0100
,  // measure 41
0010
0000
0100
0000
0010
0000
0100
0010
1000
0000
0001
0000
1000
0000
0001
0010
,  // measure 42
0100
0000
0010
0000
0001
0000
0010
0100
1000
0000
0100
0000
1000
0000
0000
0000
,  // measure 43
0100
0000
1000
0000
0010
0000
0100
0001
0010
0000
0100
0000
0010
0000
0001
1000
,  // measure 44
0010
0000
0100
0000
0010
0000
0100
0000
0010
0100
0000
0100
0010
0000
0100
0010
,  // measure 45
1000
0000
0001
0000
0010
0000
0100
0010
0001
0000
1000
0000
0010
0000
0100
0001
,  // measure 46
0010
0000
0100
0000
0010
0000
0001
0010
0100
0000
1000
0000
0100
0000
0000
0000
,  // measure 47
1000
0000
0100
0000
0010
0000
0100
1000
0010
0000
0100
0000
0001
0000
0010
0000
,  // measure 48
0200
0000
0000
0000
0300
0010
0010
0010
,  // measure 49
1001
0000
0000
0000
,  // measure 50
0110
0000
0000
0000
,  // measure 51
1001
0000
0110
0000
,  // measure 52
1001
0000
0000
0000
0110
0000
0000
0000
1001
0000
0000
0010
0100
0000
0001
0010
,  // measure 53
0100
0000
0010
0000
0001
0000
1000
0010
0100
0000
0010
0000
1000
0000
0010
0100
,  // measure 54
0001
0000
0010
0000
0100
0000
0010
0001
1000
0000
0001
0000
0100
0000
0010
1000
,  // measure 55
0100
0000
0010
0000
0001
0000
0010
0100
1000
0000
0001
0000
1000
0000
0010
1000
,  // measure 56
0100
0000
1000
0000
0001
0000
0100
0010
1000
0000
0010
0000
0100
0000
0001
0010
,  // measure 57
0100
0000
0010
0000
0011
0000
0001
0010
0100
0000
1000
0000
1100
0000
1000
0010
,  // measure 58
0100
0000
0001
0000
0101
0000
0001
0100
0010
0000
1000
0000
1010
0000
1000
0001
,  // measure 59
0010
0000
0100
0000
1100
0000
0100
0010
0001
0000
1000
0000
1001
0000
0001
0100
,  // measure 60
0010
0000
1000
0000
1010
0000
1000
0010
0100
0010
0000
0100
0001
0000
1000
0000
,  // measure 61
2100
0000
0000
0000
0000
0000
0000
0000
0100
0000
0000
0000
0000
0000
0000
0000
0100
0000
0000
0000
0000
0000
0000
0000
0100
0000
0000
0000
0000
0000
0000
0000
0100
0000
0000
0000
0000
0000
0000
0100
0000
0000
0000
0000
0000
0000
0000
0000
,  // measure 62
0100
0000
0000
0100
0000
0000
0200
0000
0000
0000
0000
0000
0000
0000
0000
0000
,  // measure 63
3300
0000
0000
0000
;
