#TITLE:Naissance (Alternative);
#SUBTITLE:;
#ARTIST:BanYa;
#TITLETRANSLIT:;
#SUBTITLETRANSLIT:;
#ARTISTTRANSLIT:;
#GENRE:;
#CREDIT:;
#BANNER:Naissance.png;
#BACKGROUND:Naissance-bg.png;
#LYRICSPATH:;
#CDTITLE:cdtitle.png;
#MUSIC:Naissance.ogg;
#OFFSET:-0.061000;
#SAMPLESTART:69.138496;
#SAMPLELENGTH:15.940987;
#SELECTABLE:YES;
#BPMS:0.000000=67.750000
,8.000000=135.500000
,50.000000=67.750000
,52.000000=135.500000
,190.000000=67.750000
,194.000000=135.500000
;
#STOPS:20.000000=0.111000,
20.250000=0.111000,
20.500000=0.111000,
20.750000=0.111000,
21.000000=0.111000,
21.250000=0.111000,
21.500000=0.221000,
34.000000=0.111000,
34.250000=0.111000,
34.500000=0.111000,
34.750000=0.111000,
35.000000=0.111000,
35.250000=0.111000,
35.500000=0.221000,
48.000000=0.111000,
48.250000=0.111000,
48.500000=0.111000,
48.750000=0.111000,
49.000000=0.111000,
49.250000=0.111000,
49.500000=0.221000,
97.000000=0.221000,
98.500000=0.221000,
100.000000=0.221000,
103.500000=0.221000,
105.000000=0.221000,
105.500000=0.111000,
105.750000=0.111000,
106.000000=0.111000,
106.250000=0.111000,
106.500000=0.111000,
106.750000=0.111000,
136.000000=0.111000,
136.250000=0.111000,
136.500000=0.111000,
136.750000=0.111000,
137.000000=0.111000,
137.250000=0.111000,
137.500000=0.221000,
166.000000=0.111000,
166.250000=0.111000,
166.500000=0.111000,
166.750000=0.111000,
167.000000=0.111000,
167.250000=0.111000,
167.500000=0.221000,
169.000000=0.221000,
170.500000=0.221000,
172.000000=0.221000,
175.500000=0.221000
;
#BGCHANGES:-10000.000=songbackground=1.000=0=0=1=====,
99999=-nosongbg-=1.000=0=0=0 // don't automatically add -songbackground-
;
#KEYSOUNDS:;
#ATTACKS:;

//---------------dance-single - ----------------
#NOTES:
     dance-single:
     :
     Challenge:
     13:
     0.662074,0.725078,0.328901,0.099667,0.787370,465.000000,432.000000,33.000000,10.000000,0.000000,0.000000,0.662074,0.725078,0.328901,0.099667,0.787370,465.000000,432.000000,33.000000,10.000000,0.000000,0.000000:
// measure 0
0000
0000
0000
0000
,  // measure 1
0000
0000
0000
0000
,  // measure 2
1000
0000
0000
0000
0001
0000
0000
0010
0001
0100
0000
0000
1010
0000
0000
0000
,  // measure 3
1000
0000
0000
0000
0100
0000
0000
0010
0100
1000
0000
0000
0001
0000
0000
0000
,  // measure 4
1000
0000
0000
0000
0001
0000
0000
0010
0001
0100
0000
0000
0010
0000
0000
0000
,  // measure 5
0100
0010
1000
0001
0100
0010
1001
0000
1000
0000
0000
0000
0100
0000
0000
0010
,  // measure 6
0001
1000
0000
0000
0101
0000
0000
0000
0001
0000
0000
0000
0010
0000
0000
0100
,  // measure 7
0010
0001
0000
0000
1001
0000
0000
0000
1000
0000
0001
0010
0100
0010
0001
0100
,  // measure 8
0010
1000
0100
0010
0100
0000
0000
0000
0010
0001
0100
0010
1000
0001
1001
0000
,  // measure 9
0100
0000
0100
0000
0110
0000
0000
0001
0000
0001
1000
0000
1001
0000
0000
0000
,  // measure 10
0100
0000
0100
0000
0110
0000
0000
1000
0000
1000
0001
0000
1001
0000
1000
0000
,  // measure 11
0010
0000
0010
0000
0110
0000
0000
0001
0000
0001
1000
0000
1001
0000
0000
0000
,  // measure 12
0001
0100
0010
1000
0001
0100
1001
0000
0220
0000
0000
0000
0000
0000
0330
0000
,  // measure 13
1000
0000
0100
0000
1000
0000
0000
0010
0000
0100
0001
0000
0010
0000
0100
0000
,  // measure 14
0010
0000
0001
0000
1000
0000
0000
0001
0000
1000
0010
0000
0100
0000
0001
0000
,  // measure 15
0010
0000
0100
1000
0000
0010
0100
0000
0001
1000
0100
0010
0100
0000
0000
0000
,  // measure 16
1000
0000
0000
0010
0000
0000
1000
0000
0000
0010
0000
0000
1000
0000
0000
0010
0000
0000
1000
0000
0000
0010
0000
0000
0100
0000
0000
0000
0000
0000
0000
0000
0100
0000
0000
0000
0000
0000
0000
0000
0100
0000
0000
0000
0000
0000
0000
0000
,  // measure 17
0010
0000
0000
1000
0000
0000
0010
0000
0000
1000
0000
0000
0010
0000
0000
1000
0000
0000
0010
0000
0000
1000
0000
0000
0100
0000
0000
0000
0000
0000
0000
0000
0100
0000
0000
0000
0000
0000
0000
0000
0100
0000
0000
0000
0000
0000
0000
0000
,  // measure 18
0010
0000
0000
0001
0000
0000
0010
0000
0000
0001
0000
0000
0010
0000
0000
0001
0000
0000
0010
0000
0000
0001
0000
0000
0100
0000
0000
0000
0000
0000
0000
0000
0100
0000
0000
0000
0000
0000
0000
0000
0100
0000
0000
0000
0000
0000
0000
0000
,  // measure 19
0010
0000
0000
0000
1000
0000
0001
0000
0010
0000
0100
0000
1000
0100
0010
0001
,  // measure 20
1000
0000
0000
0010
0000
0000
1000
0000
0000
0010
0000
0000
1000
0000
0000
0010
0000
0000
1000
0000
0000
0010
0000
0000
1000
0000
0000
0000
0000
0000
0000
0000
0010
0000
0000
0000
0000
0000
0000
0000
0100
0000
0000
0000
0000
0000
0000
0000
,  // measure 21
0001
0000
0000
0010
0000
0000
0001
0000
0000
0010
0000
0000
0001
0000
0000
0010
0000
0000
0001
0000
0000
0010
0000
0000
0001
0000
0000
0000
0000
0000
0000
0000
0010
0000
0000
0000
0000
0000
0000
0000
0100
0000
0000
0000
0000
0000
0000
0000
,  // measure 22
1000
0000
0000
0001
0000
0000
1000
0000
0000
0001
0000
0000
1000
0000
0000
0001
0000
0000
1000
0000
0000
0001
0000
0000
1000
0000
0000
0000
0000
0000
0000
0000
0010
0000
0000
0000
0000
0000
0000
0000
0100
0000
0000
0000
0000
0000
0000
0000
,  // measure 23
0010
0000
0000
0000
0100
0000
0001
0000
0010
0100
1000
0001
0100
0001
1000
0100
,  // measure 24
0010
0000
0001
0000
0011
1000
0010
0000
0100
0000
0101
1000
0001
0000
0010
0000
,  // measure 25
0110
0100
0010
0000
1001
0000
0110
0000
0010
1000
0001
0000
0010
0000
1100
0100
,  // measure 26
1000
0000
0010
0000
0110
0100
0001
0100
0010
1000
0001
0100
1001
0000
0000
0000
,  // measure 27
1000
0000
0010
0000
0100
0000
0000
0010
0000
1000
0001
0000
1000
0000
0000
0000
,  // measure 28
0100
0000
0010
0000
0001
0000
0000
0010
0000
0001
0100
0000
0010
0000
0000
0000
,  // measure 29
1000
0000
0100
0000
0010
0000
0000
0100
0000
1000
0010
0000
0100
0000
0000
0000
,  // measure 30
1001
0000
1000
0001
0100
0000
0010
1000
0000
0010
1000
0010
0100
0001
1000
0001
,  // measure 31
1000
0000
0010
0000
0100
0000
0000
0001
0000
0100
0010
0000
1000
0000
0000
0000
,  // measure 32
0001
0000
0010
0000
0100
0000
0000
0010
0000
0001
0100
0000
0010
0000
0000
0000
,  // measure 33
0100
0000
0010
0000
1000
0000
0000
0001
0000
1000
0010
0000
0100
0000
0000
0000
,  // measure 34
0001
0010
0100
1000
0100
0010
1001
0000
1000
0010
1000
0010
1000
0010
1000
0010
,  // measure 35
1000
0000
0200
0000
0000
0000
0000
0000
0310
0001
0010
0001
0010
0001
0010
0001
,  // measure 36
1000
0000
0002
0000
0000
0000
0000
0000
0103
0010
0100
0010
0100
0010
0100
0010
,  // measure 37
0100
0002
0000
0000
1003
0000
0100
1000
,  // measure 38
0010
0000
0100
0000
0001
0010
0100
1000
0001
0100
0001
0100
0001
0100
0001
0100
,  // measure 39
0001
0000
0200
0000
0000
0000
0000
0000
0301
1000
0001
1000
0001
1000
0001
1000
,  // measure 40
0001
0000
0200
0000
0000
0000
0000
0000
0310
1000
0010
1000
0010
1000
0010
1000
,  // measure 41
0010
0000
0200
0000
0000
0000
0000
0000
0310
0100
0001
1000
0010
0100
1001
0000
,  // measure 42
0010
0000
0100
0000
1001
0100
0010
0000
0010
0000
1001
1000
0100
0000
0100
0000
,  // measure 43
1001
0001
0100
0000
0001
0000
1001
0000
0010
0100
0001
0000
1000
0000
1001
0001
,  // measure 44
0010
0000
0100
0000
1100
0000
1000
0001
0100
0000
0010
0000
0110
0000
0100
0001
,  // measure 45
1000
0000
0001
0000
1001
0000
1000
0001
0010
0000
0010
0001
0100
0000
0100
0010
,  // measure 46
1000
0000
1000
0100
0010
0000
0010
0001
0100
0000
0010
0100
0010
0100
0010
0100
,  // measure 47
0010
0100
0010
0100
0010
0100
0010
0100
2002
0000
0000
0000
0000
0000
0000
0000
,  // measure 48
0000
0000
3003
0000
;
