#VERSION:0.83;
#TITLE:NB RANGER (Alternative);
#SUBTITLE:;
#ARTIST:M2U;
#TITLETRANSLIT:;
#SUBTITLETRANSLIT:;
#ARTISTTRANSLIT:;
#GENRE:;
#ORIGIN:;
#CREDIT:;
#BANNER:NB RANGER.png;
#BACKGROUND:NB RANGER-bg.png;
#PREVIEWVID:;
#JACKET:NB RANGER-jacket.png;
#CDIMAGE:;
#DISCIMAGE:;
#LYRICSPATH:;
#CDTITLE:cdtitle.png;
#MUSIC:NB RANGER.ogg;
#OFFSET:-0.091000;
#SAMPLESTART:13.773993;
#SAMPLELENGTH:12.000000;
#SELECTABLE:YES;
#BPMS:0.000=140.000;
#STOPS:;
#DELAYS:;
#WARPS:;
#TIMESIGNATURES:0.000=4=4;
#TICKCOUNTS:0.000=4;
#COMBOS:0.000=1;
#SPEEDS:0.000=1.000=0.000=0;
#SCROLLS:0.000=1.000;
#FAKES:;
#LABELS:0.000=Song Start;
#BGCHANGES:;
#KEYSOUNDS:;
#ATTACKS:
;

//---------------dance-single - ----------------
#NOTEDATA:;
#CHARTNAME:;
#STEPSTYPE:dance-single;
#DESCRIPTION:;
#CHARTSTYLE:;
#DIFFICULTY:Challenge;
#METER:16;
#RADARVALUES:0.760664,0.873946,0.118702,0.339150,1.000492,628.000000,614.000000,14.000000,40.000000,0.000000,0.000000,0.000000,0.000000,0.000000,0.760664,0.873946,0.118702,0.339150,1.000492,628.000000,614.000000,14.000000,40.000000,0.000000,0.000000,0.000000,0.000000,0.000000;
#CREDIT:;
#NOTES:
// measure 0
0000
0000
0000
0000
,  // measure 1
0000
0000
0000
0000
,  // measure 2
0000
0000
0000
0000
,  // measure 3
0000
0000
0000
0000
,  // measure 4
1001
0000
0000
0010
0100
0000
0000
0000
0000
0000
0000
0000
0000
0000
0000
0000
,  // measure 5
0000
0000
0000
0000
1001
0110
1001
0000
,  // measure 6
0110
0000
0000
1000
0001
0000
0000
0000
0000
0000
0000
0000
0000
0000
0000
0000
,  // measure 7
0101
0000
0010
0000
0010
0000
0010
0000
0010
0100
0010
0000
1002
0000
0000
0000
,  // measure 8
0013
0001
0010
0001
0010
0000
1000
0100
0010
0100
1000
0010
0100
0001
0010
0100
,  // measure 9
0010
0001
1000
0010
0100
0000
0001
0000
1000
0000
0000
0000
0000
0000
0000
0000
,  // measure 10
0010
1000
0010
1000
0001
0100
0001
0100
0010
1000
0001
0010
0100
0010
0001
1000
,  // measure 11
0100
0010
0100
1000
0001
0000
1000
0000
0100
0000
0000
0000
0020
0000
0000
0000
,  // measure 12
0130
0010
0001
1000
0100
0000
0010
0100
1000
0010
0100
0001
0010
0100
0010
0001
,  // measure 13
1000
0010
1000
0010
1000
0000
0001
0000
2000
0000
0000
0000
3000
0000
0000
0000
,  // measure 14
0100
1000
0100
1000
0100
0010
0001
0010
0001
0010
0001
1000
0010
0100
0001
0010
,  // measure 15
0100
0010
0001
1000
0001
0000
0100
0000
0010
0000
0000
0000
0200
0000
0000
0000
,  // measure 16
0301
0000
1000
0100
0000
0010
0001
0000
0010
0100
0000
0010
0001
0000
1000
0000
,  // measure 17
0010
0000
0100
0010
0000
0100
0010
0000
0100
0010
0000
0010
1000
0001
1000
0001
,  // measure 18
1000
0100
0010
0001
0010
0100
0010
0001
0010
0100
1000
0100
0010
0100
1000
0010
,  // measure 19
0100
0001
0010
0100
0010
0001
1000
0000
0010
0000
0000
0000
0000
0000
0000
0000
,  // measure 20
0100
0001
0100
0010
1000
0001
0010
0100
0010
0001
0100
0010
1000
0001
0010
0100
,  // measure 21
0010
0001
0100
0010
1000
0001
0010
0000
0100
0000
0000
0000
2000
0000
0000
0000
,  // measure 22
3010
1000
0001
0010
0100
0010
0001
1000
0010
1000
0001
0010
0100
0010
0001
0100
,  // measure 23
0010
1000
0001
0010
0100
0010
0001
0000
1000
0000
0100
0000
1001
0000
0000
0000
,  // measure 24
0001
0100
0001
0100
0010
1000
0010
1000
0010
0100
0010
0100
0010
1000
0001
0010
,  // measure 25
0100
0010
0001
0010
0100
0000
1000
0000
0001
0000
0000
0000
0020
0000
0000
0000
,  // measure 26
0130
0100
0010
0100
0010
0000
2000
0000
0000
0000
3100
0000
2000
0000
0000
0000
,  // measure 27
3200
0000
0000
2300
0000
0000
3002
0000
2000
0000
0000
0000
0000
0000
3003
0000
,  // measure 28
0001
0002
0100
0203
0010
0320
2000
0030
,  // measure 29
3020
0000
0000
0230
0000
0000
0302
0000
2003
0000
0000
0000
3200
0000
0000
0000
,  // measure 30
0320
0000
0000
0230
0000
0000
2300
0000
0000
3020
0000
0000
0230
0000
0000
0302
,  // measure 31
0000
2003
0000
3200
0020
0000
0330
0000
,  // measure 32
0010
0000
0000
0000
0000
0000
0001
0000
1000
0000
0001
0000
1000
0000
0000
0010
0000
0000
1000
0000
0000
0001
0000
0000
0010
0000
0000
0100
0000
0000
0010
0000
0100
0000
0010
0000
0100
0000
0000
0010
0000
0000
0100
0000
0000
0010
0000
0000
,  // measure 33
0001
0000
1000
0000
0001
0000
1000
0000
0000
0001
0000
0000
1000
0000
0001
0000
1000
0000
0001
0000
0000
1000
0000
0000
0020
0000
0000
0000
0000
0000
0000
0000
0000
0000
0000
0000
0000
0000
0000
0000
0000
0000
0000
0000
0000
0000
0000
0000
,  // measure 34
0230
0000
0000
0000
0310
1000
0001
0010
0100
0010
0001
1000
0001
0000
0000
0000
,  // measure 35
1000
0000
0100
0010
0001
0000
0001
0010
0100
0000
0010
0000
0001
1000
0001
1000
,  // measure 36
0200
0000
0000
0000
1300
0010
0100
0001
,  // measure 37
0020
0000
0000
0130
0010
0001
1000
0010
0200
0000
0000
0000
0010
0000
0000
0000
,  // measure 38
0301
1000
0100
0000
1000
0000
0001
0100
0010
0000
0100
0000
0010
1000
0100
0000
,  // measure 39
0010
0000
0100
0010
0001
0000
1000
0000
0001
0010
0001
0010
0100
1000
0100
1000
,  // measure 40
0001
0100
0000
0010
0000
1000
0001
0010
0000
0100
0000
0010
0001
1000
0000
0001
,  // measure 41
0000
0000
1000
0100
0010
0100
1000
0010
0100
0001
0010
0100
0010
0000
0000
0000
,  // measure 42
0100
0010
0001
0100
0010
1000
0001
0010
0100
0010
0001
0100
0010
1000
0001
0010
,  // measure 43
0100
0010
0001
1000
0010
0100
0001
0000
1000
0000
0000
0000
0000
0000
0000
0000
,  // measure 44
0100
1000
0100
0010
0001
0100
0001
1000
0001
0010
0100
0010
0001
1000
0010
0100
,  // measure 45
0010
1000
0100
0010
0100
0000
1000
0000
0001
0000
0000
0000
0000
0000
0000
0000
,  // measure 46
0001
0100
1000
0000
0100
0000
0001
0000
0010
0000
1000
0000
0010
0000
0001
0000
,  // measure 47
0001
0010
1000
0000
0010
0000
0001
0000
0100
0000
1000
0000
0100
0000
0001
0000
,  // measure 48
1000
0010
0001
0000
0010
0000
1000
0000
0100
0000
0001
0000
0100
0000
1000
0000
,  // measure 49
1000
0100
0001
0000
0100
0000
1000
0000
0010
0000
0001
0000
0010
0000
1000
0000
,  // measure 50
1001
0000
0000
0000
0000
0000
0011
0000
0000
0000
0000
0000
1000
0100
0010
0100
,  // measure 51
1000
0000
0000
0000
0000
0000
0011
0000
0000
0000
0000
0000
0001
0100
0010
1000
,  // measure 52
0100
0000
0000
0000
0000
0000
0011
0000
0000
0000
0000
0000
0010
0001
0100
0001
,  // measure 53
1000
0000
0000
0110
0000
0000
2000
0000
,  // measure 54
3100
0010
0001
0010
1000
0010
0001
0100
,  // measure 55
1000
0100
0010
2000
0002
0000
3003
0000
,  // measure 56
0001
0010
0001
0010
0001
0010
0001
0010
0001
1000
0100
1000
0100
1000
0100
1000
,  // measure 57
0100
0010
0001
0010
0100
0010
0001
1000
0020
0000
0000
0000
0130
0001
0100
0001
,  // measure 58
1000
0100
0001
0100
1000
0010
0100
0001
0010
0100
0010
0001
0010
0100
1000
0001
,  // measure 59
0100
1000
0100
0001
1000
0001
0010
0000
0100
0000
0000
0000
0000
0000
0000
0000
,  // measure 60
1000
0100
0001
0100
1000
0010
0100
0001
0010
0100
0010
0001
0100
0010
1000
0001
,  // measure 61
0010
1000
0010
0001
0100
0000
0001
0000
1000
0000
0000
0000
0000
0000
0000
0000
,  // measure 62
1000
0010
0001
0010
1000
0010
0100
0001
0010
0100
0010
0001
1000
0010
1000
0001
,  // measure 63
0010
1000
0010
0001
0010
0100
1000
0000
0001
0000
0000
0000
0000
0000
0000
0000
,  // measure 64
0100
1000
0100
0001
0010
1000
0010
0001
0010
0001
0100
0010
1000
0001
0010
0100
,  // measure 65
0010
0001
0010
0001
0010
0100
1000
0000
0001
0000
0000
0000
0000
0000
0000
0000
,  // measure 66
0210
0000
0300
0000
;
