#TITLE:Mind Mapping;
#SUBTITLE:(Miami Mapping Mix) (Alternative);
#ARTIST:Dirty Androids;
#TITLETRANSLIT:;
#SUBTITLETRANSLIT:;
#ARTISTTRANSLIT:;
#GENRE:;
#CREDIT:;
#BANNER:Mind Mapping (Miami Mapping Mix).png;
#BACKGROUND:Mind Mapping (Miami Mapping Mix)-bg.png;
#LYRICSPATH:;
#CDTITLE:cdtitle.png;
#MUSIC:Mind Mapping (Miami Mapping Mix).mp3;
#OFFSET:0.004000;
#SAMPLESTART:37.480000;
#SAMPLELENGTH:12.000000;
#SELECTABLE:YES;
#BPMS:0.000000=128.000000
;
#STOPS:
;
#BGCHANGES:;
#KEYSOUNDS:;
#ATTACKS:;

//---------------dance-single - ----------------
#NOTES:
     dance-single:
     :
     Challenge:
     11:
     0.385644,0.471450,0.068559,1.114082,0.115693,315.000000,307.000000,8.000000,130.000000,0.000000,0.000000,0.385644,0.471450,0.068559,1.114082,0.115693,315.000000,307.000000,8.000000,130.000000,0.000000,0.000000:
// measure 0
0000
0000
0000
0000
,  // measure 1
0000
0000
0000
0000
,  // measure 2
0000
0000
0000
0000
,  // measure 3
0000
0000
0000
0000
,  // measure 4
0000
1000
0100
0010
0000
0010
0100
1000
,  // measure 5
0001
0100
0001
0010
,  // measure 6
0100
0010
0001
1000
,  // measure 7
0010
0000
0000
0000
0100
0000
0000
0000
0010
0000
1000
0010
0100
0001
0000
0001
,  // measure 8
1000
0000
0000
0100
0000
0000
0010
0000
0000
0000
0100
0000
1000
0000
0001
0000
,  // measure 9
0100
0000
0000
0010
0000
0000
1000
0000
0000
0000
0010
0000
0100
0000
0001
0000
,  // measure 10
0010
0000
0000
0100
0000
0000
0010
0000
0000
0000
0100
0000
1000
0000
0001
0000
,  // measure 11
0100
0000
0000
0001
0000
0000
0010
0000
0000
0000
0100
0000
0010
0000
0001
0000
,  // measure 12
1000
0000
0000
0001
0000
0000
0100
0000
0000
0000
0010
0000
1000
0000
0001
0000
,  // measure 13
0100
0000
0000
0001
0000
0000
1000
0000
0000
0000
0100
0000
1000
0000
0100
0000
,  // measure 14
0010
0000
0000
0100
0000
0000
1000
0000
0000
0000
0100
0000
0010
0000
0001
0000
,  // measure 15
1000
0000
0000
0001
0000
0000
0100
0000
0000
0000
0010
0000
1000
0000
0001
0000
,  // measure 16
0010
0000
0000
1000
0000
0000
1010
0000
0000
0000
1000
0000
0010
0000
0001
0000
,  // measure 17
0100
0000
0000
1000
0000
0000
1100
0000
0000
0000
0100
0000
0010
0000
1000
0000
,  // measure 18
0001
0000
0000
0010
0000
0000
1001
0000
0000
0000
0010
0000
0001
0000
0100
0000
,  // measure 19
0010
0000
1000
0000
0001
1000
0000
0010
0000
1000
0001
0000
1001
0000
0000
0000
,  // measure 20
2000
3200
0302
0203
0020
0300
0230
0320
,  // measure 21
0032
0203
2300
3200
0020
0300
2030
0000
,  // measure 22
3200
0302
0203
0320
0002
0030
0203
0320
,  // measure 23
2000
0030
3200
0320
0230
0000
1300
0000
,  // measure 24
0200
0320
0032
0203
2000
0300
3200
0320
,  // measure 25
2030
0000
0200
0000
3000
0000
0320
0230
2000
0000
0300
0000
3020
0000
0000
0000
,  // measure 26
0230
0302
0203
0320
2000
0030
3200
0320
,  // measure 27
0032
0000
0023
0230
0320
0000
0130
0000
,  // measure 28
0002
0203
2300
3200
0020
0300
0230
0302
,  // measure 29
0023
2030
3020
0230
2000
0300
3200
0000
,  // measure 30
0320
0230
2300
3020
0002
0030
0023
0230
,  // measure 31
0002
0000
0000
0000
0300
0000
2000
3000
2000
0000
0000
0000
3003
0000
0000
0000
,  // measure 32
0200
2300
3200
0302
2003
0000
3200
0320
,  // measure 33
0032
0000
0200
0000
0003
0000
0320
2030
0200
0000
3000
0000
2300
0000
0000
0000
,  // measure 34
3002
0023
2030
3020
0200
0030
0320
0032
,  // measure 35
2000
0000
0000
0000
0003
0000
0020
0030
0020
0000
0000
0000
3030
0000
0000
0000
,  // measure 36
0101
0000
0000
0000
,  // measure 37
0001
0100
1000
0010
0001
0000
1001
0000
,  // measure 38
0000
0000
0000
0000
,  // measure 39
0100
0000
0000
0010
1001
0000
0000
0000
,  // measure 40
0000
1000
0001
0010
0000
0010
0001
1000
,  // measure 41
1000
0100
0001
0010
1000
0000
1001
0000
,  // measure 42
2000
0000
3002
0000
,  // measure 43
0203
0000
0000
0010
0010
0000
0000
0000
,  // measure 44
0301
0000
0000
0001
0000
0000
0001
0000
0000
0000
1000
0000
0100
0000
0010
0000
,  // measure 45
0100
0000
0000
0100
0000
0000
0100
0000
0000
0000
0010
0000
0100
0000
1000
0000
,  // measure 46
0010
0000
0000
0010
0000
0000
0010
0000
0000
0000
0100
0000
0010
0000
1000
0000
,  // measure 47
0001
0000
0000
0001
0000
0000
0001
0000
0000
0000
0100
0000
0010
0000
1000
0000
,  // measure 48
0100
0000
0000
0100
0000
0000
0100
0000
0000
0000
0010
0000
0001
0000
0100
0000
,  // measure 49
0001
0000
0000
0001
0000
0000
0001
0000
0000
0000
1000
0000
0100
0000
1000
0000
,  // measure 50
0001
0000
0000
0001
0000
0000
0001
0000
0000
0000
0100
0000
0010
0000
1000
0000
,  // measure 51
0100
0000
0000
0100
0000
0000
0100
0000
0000
0000
0010
0000
0100
0000
1000
0000
,  // measure 52
0001
0100
1000
0200
0000
0320
0000
2030
,  // measure 53
0000
3020
0000
0230
0000
0302
0000
0023
,  // measure 54
0000
2030
3020
0002
0030
0023
0000
0032
,  // measure 55
0000
0000
0000
2000
0000
0000
0000
3003
,  // measure 56
0002
0203
2300
0200
3000
0320
0000
2030
,  // measure 57
0000
3200
0000
0302
0000
0203
0000
0320
,  // measure 58
0230
0320
0032
2000
0003
3002
0000
0203
,  // measure 59
0000
0302
0000
0023
0000
0000
0000
0000
,  // measure 60
0030
0100
0010
0200
0000
0310
0100
0020
,  // measure 61
0000
0030
0000
0000
0000
0000
0000
0000
;
