#VERSION:0.83;
#TITLE:Masquerade (Alternative);
#SUBTITLE:;
#ARTIST:M2U;
#TITLETRANSLIT:;
#SUBTITLETRANSLIT:;
#ARTISTTRANSLIT:;
#GENRE:;
#ORIGIN:;
#CREDIT:;
#BANNER:Masquerade.png;
#BACKGROUND:Masquerade-bg.png;
#PREVIEWVID:;
#JACKET:Masquerade jk.png;
#CDIMAGE:;
#DISCIMAGE:;
#LYRICSPATH:;
#CDTITLE:cdtitle.png;
#MUSIC:Masquerade.mp3;
#OFFSET:-1.979999;
#SAMPLESTART:50.730045;
#SAMPLELENGTH:12.000000;
#SELECTABLE:YES;
#BPMS:0.000=128.000;
#STOPS:;
#DELAYS:;
#WARPS:;
#TIMESIGNATURES:0.000=4=4;
#TICKCOUNTS:0.000=4;
#COMBOS:0.000=1;
#SPEEDS:0.000=1.000=0.000=0;
#SCROLLS:0.000=1.000;
#FAKES:;
#LABELS:0.000=Song Start;
#BGCHANGES:;
#KEYSOUNDS:;
#ATTACKS:
;

//---------------dance-single - ----------------
#NOTEDATA:;
#CHARTNAME:;
#STEPSTYPE:dance-single;
#DESCRIPTION:;
#CHARTSTYLE:;
#DIFFICULTY:Challenge;
#METER:15;
#RADARVALUES:0.715668,0.840848,0.407684,0.276396,0.666805,725.000000,666.000000,59.000000,40.000000,0.000000,0.000000,0.000000,0.000000,0.000000,0.715668,0.840848,0.407684,0.276396,0.666805,725.000000,666.000000,59.000000,40.000000,0.000000,0.000000,0.000000,0.000000,0.000000;
#CREDIT:;
#NOTES:
// measure 0
0000
0000
0000
0000
,  // measure 1
0000
0000
0000
0000
,  // measure 2
0000
0000
0000
0000
,  // measure 3
0000
0000
0000
0000
,  // measure 4
1000
1000
0000
0000
0001
0001
0000
0000
,  // measure 5
0100
0100
0000
0000
0010
0010
0000
0000
,  // measure 6
1000
1000
0000
0000
0001
0001
0000
0000
,  // measure 7
0100
0000
0000
0000
0100
0000
0000
0100
0010
1000
0001
1000
0001
0000
0000
0000
,  // measure 8
1000
0000
0100
0000
0100
0000
0001
0100
1000
0000
0010
0000
0010
0000
0100
0001
,  // measure 9
1000
0100
0001
0010
1000
0000
0001
0000
,  // measure 10
1200
0000
0000
0000
0000
0000
0000
0000
0000
0000
0000
0000
0310
0000
0001
0000
1000
0001
1000
0001
1000
0000
0000
0000
1000
0000
0000
0000
0001
0000
0000
0000
,  // measure 11
0200
0000
0000
0000
0000
0000
0310
1000
0100
0000
0001
0000
0100
0000
0010
0000
,  // measure 12
0002
0000
0000
0000
0000
0000
0000
0000
0003
0000
0000
0010
0100
0000
1000
0000
0100
0000
0000
0000
1000
0000
0100
0000
0010
0000
0100
0000
1000
0000
0001
0000
,  // measure 13
0200
0000
0000
0000
0310
0000
1000
0000
0001
0000
1000
0100
1000
0000
0100
0000
,  // measure 14
0020
0000
0000
0000
0031
0000
0100
0000
0020
0000
0000
0000
0130
0000
0001
0010
,  // measure 15
0100
1000
0100
1000
0002
0000
1003
0001
,  // measure 16
0200
0000
0310
1000
0001
0010
0100
0010
,  // measure 17
0001
0000
0100
0000
1000
0000
0010
0000
0001
0000
0000
0000
2001
0000
3010
1000
,  // measure 18
0100
0000
0000
0000
0010
0000
0000
0000
0011
0000
0000
0000
0001
0100
0001
0100
0001
0000
0000
0000
0100
0000
0000
0000
0110
0000
0000
0000
0100
0000
0010
0000
,  // measure 19
0100
0000
0000
0000
0010
0000
0000
0000
0011
0000
0000
0000
1000
0000
0001
0000
1000
0000
0000
0000
1000
0010
1000
0010
1000
0000
0000
0000
0001
0000
1000
0000
,  // measure 20
0100
0000
0000
0000
0010
0000
0000
0000
0011
0000
0000
0000
0010
0000
0100
0000
1000
0000
0000
0000
0000
0000
0000
1000
0100
0000
1000
0000
0100
0000
1000
0000
,  // measure 21
0001
0000
0100
0000
0001
0000
1000
0001
1000
0000
0100
0010
0100
0010
0001
1000
,  // measure 22
0100
0000
0000
0000
1000
0000
0000
0000
1010
0000
0000
0000
1000
0000
0010
1000
0010
0000
0000
0000
0100
0000
0000
0000
0001
0000
0000
0000
1000
0000
0000
0000
,  // measure 23
0100
0000
0000
0000
0000
0000
0000
0010
0001
0000
0100
0000
0001
0000
1000
0000
0100
0000
0000
0000
0010
0000
0000
0000
0100
0000
0000
0000
1000
0000
0001
0000
,  // measure 24
0100
0000
0000
0000
0000
0000
0000
0010
1000
0000
0001
0000
0010
0000
0001
0000
1000
0000
0000
0000
0001
0100
0001
0100
0001
0000
0100
0000
0010
0000
1000
0000
,  // measure 25
0100
0000
0110
0000
0011
0000
1100
0000
1020
0000
0000
0100
0200
0000
0330
0000
,  // measure 26
1001
0000
0001
0000
1001
0000
1000
0001
0010
0000
0010
0001
1000
0000
0001
0000
,  // measure 27
1010
0000
0010
0000
0110
0000
0100
0001
0010
0000
0010
0001
0100
0000
0010
0000
,  // measure 28
1010
0000
0000
0000
1000
0000
0100
0000
0010
0000
0100
0000
1000
0000
0001
0100
0001
0000
0000
0000
0100
0000
0001
0000
1000
0000
0000
0000
0100
0000
0010
0000
,  // measure 29
0002
0000
0000
0000
0000
0000
0013
0100
,  // measure 30
0011
0000
0001
0000
0101
0000
0100
0010
1000
0000
1000
0010
0100
0000
0001
0000
,  // measure 31
1001
0000
1000
0000
1010
0000
1000
0001
0010
0000
0010
0100
1000
0000
1000
0100
,  // measure 32
0010
0000
0100
0010
0100
1000
0010
0100
0001
0000
1000
0000
1000
0000
0001
1000
,  // measure 33
0010
0000
0000
0000
0000
0000
0100
0010
0100
0000
0000
0000
0010
0000
1000
0000
0001
0000
0000
0000
1000
0000
0000
0000
1001
0000
0000
0000
1000
0000
0001
0000
,  // measure 34
1001
0000
1000
0000
1001
0000
0001
1000
0010
0000
0010
1000
0100
0000
0010
0000
,  // measure 35
0011
0000
0010
0000
1100
0000
1000
0010
0100
0000
0100
0001
1000
0000
0100
0000
,  // measure 36
0011
0000
0000
0000
0000
0000
0100
0000
0010
0000
0001
0000
0100
0000
0010
1000
0010
0000
0000
0000
0100
0000
0001
0000
1000
0000
0000
0000
0100
0000
0010
0000
,  // measure 37
0200
0000
0000
0000
0000
0000
1300
0001
,  // measure 38
0101
0000
0001
0000
0011
0000
0010
0001
0100
0000
0100
0010
1000
0000
0001
0000
,  // measure 39
1001
0000
1000
0000
0101
0000
0100
0010
1000
0000
0100
0010
0001
0000
0001
0010
,  // measure 40
0100
0000
0000
0010
0001
1000
0010
0100
0001
0000
1000
0000
0001
0000
1000
0001
,  // measure 41
0100
0101
1010
1100
0011
0000
1001
0000
,  // measure 42
1000
1000
0000
0001
1000
1000
0000
1000
,  // measure 43
0001
0001
0000
0001
1000
1000
0000
1000
,  // measure 44
0001
0001
0000
0001
1000
1000
0000
1000
,  // measure 45
0002
0000
0000
0000
0000
0000
0003
0000
0000
0000
0000
0000
0002
0000
0000
0000
0000
0000
2003
0000
0000
3002
0000
0000
2003
0000
0000
0000
0000
0000
0000
0000
0000
0000
0000
0000
3002
0000
0000
0000
0000
0000
2003
0000
3020
0000
2030
0000
,  // measure 46
3020
0000
0000
0130
0000
0000
0100
0000
0002
0000
0000
0013
0000
0000
0100
0000
,  // measure 47
2000
0000
0000
0000
0000
0000
3000
0000
0000
2000
0000
0000
0000
0000
0000
3000
0000
0000
2000
0000
3002
0000
2003
0000
3002
0000
0000
0203
0000
0000
0302
0000
0000
0203
0000
0000
0302
0000
0000
0000
0000
0000
0000
0000
0000
0000
0000
0000
,  // measure 48
0013
0200
0000
0310
0001
2000
0000
3010
,  // measure 49
0200
0000
0000
0000
0000
0000
0300
0000
0000
0000
0000
0000
0200
0000
0000
0000
0000
0000
0000
0000
0000
0310
0000
0000
1000
0000
0001
0000
1000
0000
0001
0000
1000
0000
0001
0000
1000
0000
0000
0100
0000
0000
0010
0000
0000
0001
0000
0000
,  // measure 50
1000
0000
0000
0000
0001
0000
0000
0000
0011
0000
0000
0000
0010
0000
0100
1000
0100
0000
0000
0000
1000
0000
0100
0000
1000
0000
0001
0000
0100
0000
0001
0000
,  // measure 51
0010
0000
0000
0000
0000
0000
0000
0100
0010
0000
0001
0000
0010
0000
0001
0100
0001
0000
0000
0000
1000
0000
0000
0000
0001
0000
1000
0000
0001
0000
0010
0000
,  // measure 52
0001
0000
1000
0100
1000
0001
0100
0010
1000
0100
0010
0001
1000
0100
0010
0001
,  // measure 53
1000
0000
0001
0000
0010
0000
0001
0000
1000
0000
0010
0000
1000
0000
0001
0000
1000
0100
1000
0000
0100
0000
1000
0000
0010
0000
0000
0000
0100
0000
0000
0000
,  // measure 54
0001
0000
0000
0000
1000
0000
0010
0000
0001
0000
0000
0000
0010
0000
0000
0000
1000
0000
0000
0000
0001
1000
0001
0000
1000
0000
0000
0000
0010
0000
0000
0000
,  // measure 55
0100
0010
1000
0001
0010
0100
0010
0001
1000
0000
0100
0000
1000
0000
0010
1000
,  // measure 56
0100
0000
0000
0000
0000
0000
0010
0001
0010
0000
0001
0000
0100
0000
0010
0000
1000
0000
0001
0000
0010
0000
0100
0000
0010
0000
0001
0000
1000
0000
0010
0000
,  // measure 57
0100
0101
0011
1100
1010
0000
1001
0000
,  // measure 58
1000
0000
0001
0000
0001
0000
1000
0001
0010
0000
0010
0001
0100
0000
0010
0000
,  // measure 59
1000
0000
0100
0000
0100
0000
0010
0100
1000
0000
1000
0100
0010
0000
0100
0000
,  // measure 60
1000
0000
0000
0000
0000
0000
0001
0000
1000
0000
0100
0000
1000
0000
0010
1000
0010
0000
0000
0000
0100
0000
0001
0000
0010
0000
0000
0000
0100
0000
0010
0000
,  // measure 61
0002
0000
0000
0000
0000
0000
1003
0001
,  // measure 62
0101
0000
0100
0000
0110
0000
0100
0001
0010
0000
0010
0001
1000
0000
0001
0000
,  // measure 63
1001
0000
0000
0000
1000
0000
0000
0000
1010
0000
0000
0000
1000
0000
0001
0000
0010
0000
0000
0000
0100
0000
0010
0000
0001
0000
0000
0000
1000
0000
0001
1000
,  // measure 64
0001
0000
0100
0001
0010
0001
1000
0100
0010
0000
0100
0000
1000
0000
0001
0100
,  // measure 65
0010
0000
0000
0000
0000
0000
0100
0010
1000
0000
0000
0000
0100
0000
0010
0000
0001
0000
0000
0000
0010
0000
0000
0000
0001
0000
0000
0000
0100
0000
0010
0000
,  // measure 66
1010
0000
1000
0000
1001
0000
0001
0010
0100
0000
0100
0010
0001
0000
0001
0000
,  // measure 67
1001
0000
1000
0000
1010
0000
0010
0100
0001
0000
0001
0010
0100
0000
0100
0000
,  // measure 68
0110
0000
0000
0100
0010
0001
1000
0010
0100
0000
0010
1000
0100
0000
0010
0001
,  // measure 69
0200
0000
0000
0000
0000
0000
0310
1000
,  // measure 70
1001
0000
1000
0000
0101
0000
0001
1000
0010
0000
0100
0001
0010
0000
0100
0000
,  // measure 71
0110
0000
0100
0000
1100
0000
1000
0010
0100
0000
0001
1000
0100
0000
0010
0001
,  // measure 72
1000
0000
1000
0001
0100
0010
1000
0001
0010
0000
0100
0010
0001
0000
0010
0100
,  // measure 73
1000
1100
0011
1010
0101
0000
1001
0000
;
