#TITLE:Love Is Eternity (Alternative);
#SUBTITLE:;
#ARTIST:kors k;
#TITLETRANSLIT:;
#SUBTITLETRANSLIT:;
#ARTISTTRANSLIT:;
#GENRE:;
#CREDIT:;
#BANNER:Love Is Eternity.png;
#BACKGROUND:Love Is Eternity-bg.png;
#LYRICSPATH:;
#CDTITLE:;
#MUSIC:Love Is Eternity.mp3;
#OFFSET:-0.043000;
#SAMPLESTART:34.320000;
#SAMPLELENGTH:14.120000;
#SELECTABLE:YES;
#BPMS:0.000000=140.000000
;
#STOPS:
;
#BGCHANGES:;
#KEYSOUNDS:;
#ATTACKS:;

//---------------dance-single - ----------------
#NOTES:
     dance-single:
     :
     Challenge:
     15:
     0.628820,0.786242,0.045535,0.242855,1.024543,580.000000,574.000000,6.000000,32.000000,0.000000,0.000000,0.628820,0.786242,0.045535,0.242855,1.024543,580.000000,574.000000,6.000000,32.000000,0.000000,0.000000:
// measure 0
0000
0000
0000
0000
,  // measure 1
0000
0000
0000
0000
,  // measure 2
0000
0000
0000
0000
,  // measure 3
0000
0000
0000
0000
,  // measure 4
0000
0000
0000
0000
0000
0000
0000
0000
0000
0000
0000
1000
0001
0000
1000
0000
,  // measure 5
0001
0000
0000
0100
0000
0000
0010
0000
0000
1000
0000
0000
0100
0000
0000
1000
,  // measure 6
0000
0000
0010
0000
0000
1000
0000
0000
0001
0000
0000
0010
0000
0000
0100
0000
,  // measure 7
0010
0000
0000
0001
0000
0000
1000
0000
0000
0010
0000
0000
0100
0000
0000
0001
,  // measure 8
0000
0000
0010
0000
0000
0001
0000
0000
1000
0000
0000
0001
0000
0000
0010
0000
,  // measure 9
0100
0000
0000
0010
0000
0000
0001
0000
0000
0100
0000
0000
0010
0000
0000
1000
,  // measure 10
0000
0000
0001
0000
0000
1000
0000
0000
0100
0000
0000
0010
0000
0000
0100
0000
,  // measure 11
1000
0000
0000
0000
0000
0000
0002
0000
0000
0000
0000
0000
0000
0000
0000
0000
0000
0000
0003
0000
0000
0000
0000
0000
0000
0000
0000
0100
0000
0000
0000
0000
0010
0000
0000
0000
1000
0000
0000
0000
0000
0000
0001
0000
0000
0000
0000
0000
,  // measure 12
0010
0110
0000
0011
0000
1010
0000
0011
,  // measure 13
1001
0000
0000
0001
0000
0000
0100
0000
0000
1000
0000
0000
0100
0000
0000
0001
,  // measure 14
0000
0000
0010
0000
0000
1000
0000
0000
0010
0000
0000
0001
0000
0000
0010
0000
,  // measure 15
0100
0000
0000
0010
0000
0000
0001
0000
0000
0100
0000
0000
1000
0000
0000
0100
,  // measure 16
0000
0000
0010
0000
0000
1000
0000
0000
0001
0000
0000
0010
0000
0000
0100
0000
,  // measure 17
0010
0000
0000
0010
0000
0000
0001
0000
0000
0001
0000
0000
0100
0000
0000
0100
,  // measure 18
0000
0000
1000
0000
0000
1000
0000
0000
0100
0000
0000
0010
0000
0000
1000
0000
,  // measure 19
0001
0000
0000
0001
0000
0000
1000
0000
0000
1000
0000
0000
0010
0000
0100
0000
,  // measure 20
0001
0010
0100
0010
0001
1000
0010
0100
0001
0010
0100
1000
0100
0010
0100
1000
,  // measure 21
0001
0000
1000
0010
0000
0100
0001
0000
1000
0010
0000
0100
0001
0000
1000
0010
,  // measure 22
0000
0100
0001
0000
1000
0010
0000
0100
0001
0000
1000
0010
0000
0100
0010
0000
,  // measure 23
1000
0000
0001
0010
0000
0100
1000
0000
0001
0010
0000
0100
1000
0000
0001
0010
,  // measure 24
0000
0100
0010
0000
0100
1000
0000
0100
0010
1000
0100
1000
0001
1000
0010
0000
,  // measure 25
0100
0000
0001
0100
0000
0010
0100
0000
0001
0100
0000
0100
0010
0000
0100
0001
,  // measure 26
0000
0001
0010
0000
0100
0010
0000
0010
0001
0000
0001
0100
0000
0100
0010
0000
,  // measure 27
1000
0001
0010
0000
0100
0000
0010
0001
0000
0010
0100
0000
1000
0010
0000
0100
,  // measure 28
0001
0000
0010
0100
0000
0010
0001
0000
0000
1000
0100
0010
0100
1000
0001
0010
,  // measure 29
0100
0000
1000
0100
0000
0100
0010
0000
0010
0001
0000
0001
0100
0000
0100
0010
,  // measure 30
0000
0010
1000
0000
1000
0001
0000
0001
1000
0000
1000
0001
0000
0001
0010
0000
,  // measure 31
0100
0000
0010
0100
0000
0100
1000
0000
1000
0010
0000
0010
0100
0000
0100
0001
,  // measure 32
0000
0001
0010
0000
0010
0100
0000
0100
1000
0100
0010
0100
1000
0001
0100
0000
,  // measure 33
0010
0000
0010
0100
0000
0100
0001
0000
0001
0010
0000
0010
0001
0000
0001
1000
,  // measure 34
0000
1000
0010
0000
0010
0100
0000
0100
0001
0000
0001
0010
0000
0010
0100
0000
,  // measure 35
1000
0100
0010
0000
0100
0000
1000
0100
0000
0100
0010
0000
0010
0001
0000
0001
,  // measure 36
1000
0100
0010
0100
1000
0010
0100
0001
0010
0100
0010
0001
0100
0010
1000
0100
,  // measure 37
0010
0000
0100
1000
0000
0001
0000
0000
0200
0000
0000
0302
0000
0000
0013
0000
,  // measure 38
0000
0000
0100
0010
0000
0001
0000
0000
2000
0000
0000
3002
0000
0000
0013
0000
,  // measure 39
0000
0000
0100
0010
0000
0100
0000
0000
2000
0000
0000
3200
0000
0000
0310
0000
,  // measure 40
0000
0000
0100
1000
0000
0010
0000
0000
0200
0000
0000
0302
0000
0000
0013
0000
,  // measure 41
0000
0000
0100
1000
0000
0001
0000
0000
0200
0000
0000
0302
0000
0000
1003
0000
,  // measure 42
0000
0000
0100
0010
0000
0100
0000
0000
0020
0000
0000
0230
0000
0000
1300
0000
,  // measure 43
0000
0000
1000
0010
0000
0100
0000
0000
0002
0000
0000
2003
0000
0000
3010
0000
,  // measure 44
0000
0000
0100
0001
0000
0010
0000
0000
0200
0000
0000
0320
0000
0000
0031
1000
,  // measure 45
0100
0000
1000
0001
0000
0100
0000
0000
0002
0000
0000
0023
0000
0000
1030
0000
,  // measure 46
0000
0000
0010
0001
0000
1000
0000
0000
0002
0000
0000
0203
0000
0000
1300
0000
,  // measure 47
0000
0000
0100
0010
0000
1000
0000
0000
0002
0000
0000
2003
0000
0000
3100
0000
,  // measure 48
0000
0000
0010
0100
0000
1000
0000
0000
0200
0000
0000
0320
0000
0000
0031
0000
,  // measure 49
1000
0000
0001
0100
0000
0010
0000
0000
2000
0000
0000
3200
0000
0000
0301
0000
,  // measure 50
0000
0000
0100
0010
0000
0001
0000
0000
2000
0000
0000
3002
0000
0000
0103
0000
,  // measure 51
0000
0000
0010
1000
0000
0100
0000
0000
0020
0000
0000
0032
0000
0000
1003
0000
,  // measure 52
1001
0000
0000
0000
,  // measure 53
1000
0010
1000
0001
0010
0100
0000
0010
0001
0100
0010
1000
0100
0010
0001
1000
,  // measure 54
0100
0000
1000
0010
0000
0100
0001
0000
0010
0100
0000
0010
0001
0000
0100
0010
,  // measure 55
0000
1000
0001
0000
0010
0100
0000
1000
0010
0000
0100
0001
0000
0010
0100
0000
,  // measure 56
0010
0000
0001
0010
0000
0100
1000
0000
0100
1000
0000
0010
0100
0000
0001
1000
,  // measure 57
0000
0001
0010
0000
0100
0010
0000
0010
0001
0100
0010
1000
0001
0010
0100
1000
,  // measure 58
0001
0000
1000
0010
0000
0100
0001
0000
0010
0100
0000
0010
0001
0000
0010
0100
,  // measure 59
0000
1000
0010
0000
0100
0001
0000
1000
0100
0000
0010
0100
0000
0010
0001
0000
,  // measure 60
1000
0001
0100
0000
0001
0000
1000
0010
0000
0100
0001
0000
0010
0100
0000
0010
,  // measure 61
0001
0000
0100
0010
0000
1000
0001
0000
0000
1000
0100
0010
0001
0010
0100
1000
,  // measure 62
0001
0000
1000
0100
0000
0001
0100
0000
1000
0100
0000
0001
0100
0000
1000
0100
,  // measure 63
0000
0100
0001
0000
0001
0100
0000
0100
1000
0000
1000
0100
0000
0001
0100
0000
,  // measure 64
1000
0000
0001
0010
0000
1000
0010
0000
0001
0010
0000
1000
0010
0000
0001
0010
,  // measure 65
0000
0010
1000
0000
1000
0010
0000
0010
0001
1000
0001
0010
0100
1000
0001
0000
,  // measure 66
1000
0000
0001
1000
0000
0010
0100
0000
0001
1000
0000
0010
0100
0000
0001
1000
,  // measure 67
0000
1000
0001
0000
0001
0100
0000
0010
1000
0000
0001
1000
0000
0010
0100
0000
,  // measure 68
0001
1000
0010
0000
0100
0000
0001
1000
0000
0010
0100
0000
0001
0100
0000
0010
,  // measure 69
1000
0100
0010
0100
1000
0001
0010
0100
0010
0001
0100
0010
1000
0001
0010
0100
,  // measure 70
0020
0000
0000
0000
,  // measure 71
0000
0000
0000
0000
,  // measure 72
0000
0000
0000
0000
,  // measure 73
0000
0000
0000
0000
,  // measure 74
0030
0000
0000
0000
;
