#VERSION:0.83;
#TITLE:La Primavera feat. REMAH;
#SUBTITLE:-SHOCK SPECIAL-;
#ARTIST:FAKE TYPE.;
#TITLETRANSLIT:;
#SUBTITLETRANSLIT:;
#ARTISTTRANSLIT:;
#GENRE:;
#ORIGIN:;
#CREDIT:;
#BANNER:La Primavera feat. REMAH-bn.png;
#BACKGROUND:La Primavera feat. REMAH-bg.png;
#PREVIEWVID:;
#JACKET:La Primavera feat. REMAH-jacket.png;
#CDIMAGE:;
#DISCIMAGE:;
#LYRICSPATH:;
#CDTITLE:cdtitle.png;
#MUSIC:La Primavera feat REMAH.mp3;
#OFFSET:-0.241000;
#SAMPLESTART:72.965775;
#SAMPLELENGTH:14.430725;
#SELECTABLE:YES;
#BPMS:0.000=132.000;
#STOPS:;
#DELAYS:;
#WARPS:;
#TIMESIGNATURES:0.000=4=4;
#TICKCOUNTS:0.000=4;
#COMBOS:0.000=1;
#SPEEDS:0.000=1.000=0.000=0;
#SCROLLS:0.000=1.000;
#FAKES:;
#LABELS:0.000=Song Start;
#BGCHANGES:;
#KEYSOUNDS:;
#ATTACKS:
;

//---------------dance-single - SHOCK SPECIAL----------------
#NOTEDATA:;
#CHARTNAME:;
#STEPSTYPE:dance-single;
#DESCRIPTION:SHOCK SPECIAL;
#CHARTSTYLE:;
#DIFFICULTY:Challenge;
#METER:13;
#RADARVALUES:0.483354,0.596074,0.483354,0.203915,0.181258,448.000000,384.000000,64.000000,27.000000,224.000000,0.000000,0.000000,0.000000,0.000000,0.483354,0.596074,0.483354,0.203915,0.181258,448.000000,384.000000,64.000000,27.000000,224.000000,0.000000,0.000000,0.000000,0.000000;
#CREDIT:;
#NOTES:
// measure 0
0000
0000
0000
0000
,  // measure 1
0000
0000
0000
0000
,  // measure 2
0000
0000
0000
0000
,  // measure 3
0000
0000
0000
0000
,  // measure 4
1000
0001
0010
0100
,  // measure 5
0010
0000
0001
0000
0100
0000
0001
0000
1000
0000
1000
0001
0000
0000
0000
0000
,  // measure 6
0100
0001
0010
0100
,  // measure 7
1000
0010
1000
0010
0100
0001
MMMM
0000
,  // measure 8
1001
0000
0000
0000
1000
0000
0100
0000
0001
0000
0000
0101
0000
0000
0000
0000
,  // measure 9
1001
0000
0000
0000
0001
0000
0010
0000
1000
0000
0000
1010
0000
0000
0000
0000
,  // measure 10
1000
0001
MMMM
0000
0001
1000
MMMM
0000
,  // measure 11
0100
0010
0001
0010
0100
1000
0001
0000
,  // measure 12
1010
0000
0000
0000
0001
0000
0010
0000
0100
0000
0000
0011
0000
0000
0000
0000
,  // measure 13
1001
0000
0000
0000
1000
0000
0010
0000
0100
0000
0000
0101
0000
0000
0000
0000
,  // measure 14
0010
0100
MMMM
0000
0100
0010
MMMM
0000
,  // measure 15
0001
0010
0001
0100
0010
0000
0100
0001
,  // measure 16
1000
0001
0010
0001
,  // measure 17
1000
0002
2003
3001
,  // measure 18
0100
0010
1000
0010
,  // measure 19
0102
0000
0000
0000
0000
0003
0000
1000
,  // measure 20
0100
0000
0100
0000
1000
0000
0010
0000
0100
0000
0000
MMMM
0000
0000
0000
0001
,  // measure 21
1000
0000
0001
0000
0010
0000
0100
0000
0010
0000
0000
MMMM
0000
0000
0000
0000
,  // measure 22
0000
0000
1000
0000
0001
0000
1000
0002
0000
0000
0103
0000
0010
0000
1000
0002
,  // measure 23
0000
0000
0103
0000
0010
0000
1000
0002
0000
0000
1003
0000
0010
0000
0010
0000
,  // measure 24
0010
0000
0000
0000
MMMM
0000
1000
0100
0000
0100
1000
0000
0010
0000
0000
0000
,  // measure 25
0100
0000
0010
0000
1000
0000
0001
0000
0010
0000
1000
0000
0010
0001
0000
0010
,  // measure 26
0100
0010
0001
MMMM
0001
0100
0010
MMMM
,  // measure 27
0010
1000
0100
1000
0001
0010
0100
0000
,  // measure 28
1001
0000
MMMM
0001
0010
1000
0010
0100
,  // measure 29
0010
0001
1000
0001
0100
0001
0100
0010
,  // measure 30
0000
0000
0100
0000
0010
1000
0000
0001
0000
0010
0000
0100
0010
0000
0000
0000
,  // measure 31
1000
0100
0001
0100
1000
0010
0001
0010
,  // measure 32
MMMM
0000
0100
0001
0010
0100
0010
0001
,  // measure 33
0011
MMMM
1010
MMMM
1100
MMMM
1100
0000
,  // measure 34
0000
0100
0010
0100
1000
0010
0100
0001
,  // measure 35
0011
MMMM
1100
MMMM
0101
MMMM
0011
MMMM
,  // measure 36
0011
0000
MMMM
0000
0010
0001
0100
0001
,  // measure 37
1000
0100
0001
0100
0010
0010
0010
0100
,  // measure 38
1100
0100
0010
0001
0011
0001
0010
0100
,  // measure 39
1000
0010
0001
0100
1000
0000
0000
0000
,  // measure 40
1001
MMMM
0101
MMMM
0011
MMMM
0110
MMMM
,  // measure 41
1100
0000
MMMM
0110
0000
MMMM
0011
0000
0000
0000
0010
0000
0100
0000
0010
0000
,  // measure 42
0002
0000
0000
2003
0000
0000
3100
0000
1000
0000
0010
0000
1000
0000
0001
0000
,  // measure 43
0011
MMMM
1010
MMMM
0011
MMMM
1001
MMMM
,  // measure 44
0001
0000
0100
0000
0010
0000
0100
0010
0000
0000
0200
0000
0302
0000
0023
0000
,  // measure 45
0130
0000
0010
0000
0001
0000
1000
0001
0000
0000
2000
0000
3002
0000
0000
0000
,  // measure 46
1003
0000
0010
1000
0000
0001
0100
0000
0001
0000
0010
0001
0000
1000
0100
0000
,  // measure 47
2000
0000
0000
3200
0000
0000
0320
0000
0230
0000
0000
0000
2300
0000
0000
0000
,  // measure 48
3010
MMMM
1010
MMMM
0101
MMMM
0011
MMMM
,  // measure 49
0110
0000
MMMM
1100
0000
MMMM
0011
0000
0000
0000
1000
0000
0001
0000
0010
0000
,  // measure 50
0200
0000
0000
2300
0000
0000
3100
0000
1000
0000
0010
0000
0001
0000
0010
0000
,  // measure 51
0110
MMMM
0101
MMMM
1010
MMMM
1001
MMMM
,  // measure 52
1100
0100
0001
0100
0010
0200
2300
3020
,  // measure 53
0130
1000
0100
0001
1000
0002
0020
0033
,  // measure 54
1001
0000
0001
0100
0000
0010
1000
0000
1001
0000
1000
0100
0000
0010
0001
0000
,  // measure 55
1001
0000
0000
0110
0000
0000
0100
0000
1001
0000
0000
0000
MMMM
0000
0000
0000
,  // measure 56
1001
0000
0000
0000
1000
0000
0001
0000
0100
0000
0000
MMMM
0000
0000
0000
0000
,  // measure 57
1001
0000
0000
0000
1000
0000
0100
0000
0010
0000
0000
MMMM
0000
0000
0000
0000
,  // measure 58
1010
MMMM
0011
MMMM
1100
MMMM
0101
MMMM
,  // measure 59
1001
MMMM
0110
MMMM
2002
0000
3003
0000
,  // measure 60
1010
0000
0000
0000
1000
0000
0010
0000
0100
0000
0000
MMMM
0000
0000
0000
0000
,  // measure 61
0110
0000
0000
0000
0100
0000
0001
0000
0010
0000
0000
MMMM
0000
0000
0000
0000
,  // measure 62
0001
0000
0001
0000
1000
0000
1000
0000
0010
0100
0010
0000
0100
0000
0000
0000
,  // measure 63
0110
0000
0010
0100
0001
0000
MMMM
0000
,  // measure 64
1001
0000
0000
0000
0001
0000
0010
0000
0100
0000
0000
MMMM
0000
0000
0000
0000
,  // measure 65
1001
0000
0000
0000
1000
0000
0100
0000
0010
0000
0000
MMMM
0000
0000
0000
0000
,  // measure 66
0001
1000
0010
0100
,  // measure 67
0001
0010
0001
0010
0001
0010
0100
1000
,  // measure 68
1001
0000
0000
0000
0001
0000
1000
0000
0010
0000
0000
MMMM
0000
0000
0000
0000
,  // measure 69
1001
0000
0000
0000
1000
0000
0001
0000
0100
0000
0000
MMMM
0000
0000
0000
0000
,  // measure 70
0001
1000
0010
1000
,  // measure 71
0001
0000
0100
0000
0001
0000
0100
0000
0001
0100
0010
1000
0010
0000
0000
0000
;
