#VERSION:0.83;
#TITLE:LOOK AT US (Daddy DJ Remix) (Alternative);
#SUBTITLE:;
#ARTIST:SARINA PARIS;
#TITLETRANSLIT:;
#SUBTITLETRANSLIT:;
#ARTISTTRANSLIT:;
#GENRE:;
#ORIGIN:;
#CREDIT:;
#BANNER:LOOK AT US (Daddy DJ Remix).png;
#BACKGROUND:LOOK AT US (Daddy DJ Remix)-bg.png;
#PREVIEWVID:;
#JACKET:LOOK AT US (Daddy DJ Remix)-jacket.png;
#CDIMAGE:;
#DISCIMAGE:;
#LYRICSPATH:;
#CDTITLE:;
#MUSIC:LOOK AT US (Daddy DJ Remix).ogg;
#OFFSET:0.000000;
#SAMPLESTART:59.450001;
#SAMPLELENGTH:15.000000;
#SELECTABLE:YES;
#DISPLAYBPM:135.000000;
#BPMS:0.000=132.783,
4.000=134.697;
#STOPS:;
#DELAYS:;
#WARPS:;
#TIMESIGNATURES:0.000=4=4;
#TICKCOUNTS:0.000=4;
#COMBOS:0.000=1;
#SPEEDS:0.000=1.000=0.000=0;
#SCROLLS:0.000=1.000;
#FAKES:;
#LABELS:0.000=Song Start;
#BGCHANGES:;
#KEYSOUNDS:;
#ATTACKS:
;

//---------------dance-single - ----------------
#NOTEDATA:;
#CHARTNAME:;
#STEPSTYPE:dance-single;
#DESCRIPTION:;
#CHARTSTYLE:;
#DIFFICULTY:Challenge;
#METER:13;
#RADARVALUES:0.501525,0.678199,0.180853,0.425536,0.356387,330.000000,313.000000,17.000000,40.000000,0.000000,0.000000,0.000000,0.000000,0.000000,0.501525,0.678199,0.180853,0.425536,0.356387,330.000000,313.000000,17.000000,40.000000,0.000000,0.000000,0.000000,0.000000,0.000000;
#CREDIT:Pandemonium X;
#DISPLAYBPM:135.000000;
#NOTES:
// measure 0
0000
0000
0000
0000
,  // measure 1
0000
0000
0000
0000
,  // measure 2
0000
0000
0000
0000
,  // measure 3
0000
0000
0000
0000
,  // measure 4
0000
0000
0000
0000
,  // measure 5
0000
0000
0000
0010
0001
0100
0001
0010
,  // measure 6
0100
0000
0000
0010
0100
1000
0010
0100
,  // measure 7
0020
0000
0030
0100
0000
0001
0010
0000
,  // measure 8
0010
0001
0000
1100
0000
1000
0010
0000
,  // measure 9
0100
0001
0100
0001
0100
0001
0100
0001
0100
0001
0100
0001
0100
0001
0100
0001
,  // measure 10
0020
0000
0030
0100
0010
0001
1000
0010
,  // measure 11
0200
0000
0300
0020
0000
1030
0200
0000
,  // measure 12
0301
0200
0000
0320
0000
0031
0200
0000
,  // measure 13
0310
0000
0000
0100
0010
1000
0100
0010
,  // measure 14
0002
0000
0003
0010
0100
0010
0001
1000
,  // measure 15
0200
0000
0300
0020
0000
0130
2000
0000
,  // measure 16
3010
0200
0000
0301
0000
0010
0100
0000
,  // measure 17
1100
0000
0000
0000
0001
0100
1000
0010
,  // measure 18
0001
0000
1000
0000
0100
1000
0000
1000
0010
0000
0010
1000
0000
1000
0001
0000
,  // measure 19
0010
0000
0100
0000
0010
0001
0000
0001
0100
0000
0100
0010
0000
0010
1000
0100
,  // measure 20
0010
0000
0100
0000
1000
0001
0000
0001
0010
0000
0010
0001
0000
0001
1000
0000
,  // measure 21
0001
0000
0100
0000
0010
1000
0000
1000
0100
0000
0100
0010
0000
0010
0001
0010
,  // measure 22
0100
0000
0010
0000
0001
0010
0000
0010
0100
0000
0100
1000
0000
1000
0100
0000
,  // measure 23
0010
0000
0100
0000
1000
0010
0000
0010
0100
0000
0100
0001
0000
0001
0010
0100
,  // measure 24
0010
0000
0100
0000
1000
0001
0000
0001
0100
0000
0100
0010
0000
0010
1000
0000
,  // measure 25
0001
1000
0001
1000
0001
1000
0001
1000
0001
0000
0010
0100
0000
0100
1000
0000
,  // measure 26
0011
0000
0000
0000
0000
0000
1000
0000
1001
0000
0001
0100
0000
0010
1000
0000
,  // measure 27
1001
0000
0000
0000
0000
0000
1000
0000
1100
0000
1000
0010
0000
0100
0001
0000
,  // measure 28
0011
0000
0000
0000
0000
0000
0001
0000
0011
0000
0001
0010
0000
0100
1000
0000
,  // measure 29
1001
0000
0000
0000
0000
0000
0001
0000
1000
0000
0010
0100
0000
0001
0010
0000
,  // measure 30
1100
0000
0000
0000
0000
0000
1000
0000
0100
0000
0010
0001
0000
0010
0100
0000
,  // measure 31
1001
0000
0000
0000
0000
0000
1000
0000
0001
0000
0010
0100
0000
0100
1000
0000
,  // measure 32
1001
0000
0000
0000
0000
0000
1000
0000
1000
0000
1000
0100
0000
0100
0010
0000
,  // measure 33
0021
0000
0130
0000
1020
0000
0130
0000
0010
0100
0001
1000
0010
0100
0001
1000
,  // measure 34
0100
0000
0000
1000
0100
0001
0100
0010
,  // measure 35
0001
0000
0000
2000
0000
3010
0002
0000
,  // measure 36
0013
0200
0000
0320
0000
1030
0002
0000
,  // measure 37
0020
0000
0033
0001
0010
1000
0010
0001
,  // measure 38
2000
0000
3000
0100
1000
0010
0100
0001
,  // measure 39
2000
0000
3000
0200
0000
1300
0200
0000
,  // measure 40
0301
0200
0000
0320
0000
0031
0020
0000
,  // measure 41
0200
0000
0330
1000
0100
0010
0001
0100
,  // measure 42
1001
0000
0000
0000
0001
0000
0100
0000
0010
0000
1000
0010
0000
0100
0001
0000
,  // measure 43
0010
0000
0000
0200
0000
1300
0020
0000
,  // measure 44
0031
0020
0000
2030
0000
3010
0200
0000
,  // measure 45
0002
0000
0303
1000
0001
0100
1000
0100
,  // measure 46
1001
0000
0000
0001
0010
1000
0010
0001
,  // measure 47
1001
0000
0000
0000
0000
0000
1000
0000
0001
0000
0001
0100
0000
0100
0010
0000
,  // measure 48
1000
0200
0000
0302
0000
0103
0020
0000
,  // measure 49
0002
0000
0033
0000
1000
0100
0001
0010
,  // measure 50
2000
0000
0000
0000
,  // measure 51
3000
0000
0000
0000
;
