#TITLE:Kung-Fu Rider (Alternative);
#SUBTITLE:;
#ARTIST:AstroKid;
#TITLETRANSLIT:;
#SUBTITLETRANSLIT:;
#ARTISTTRANSLIT:;
#GENRE:;
#CREDIT:;
#BANNER:Kung-Fu Rider.png;
#BACKGROUND:Kung-Fu Rider-bg.png;
#LYRICSPATH:;
#CDTITLE:;
#MUSIC:Kung-Fu Rider.mp3;
#OFFSET:-0.225000;
#SAMPLESTART:14.640000;
#SAMPLELENGTH:11.980000;
#SELECTABLE:YES;
#BPMS:0.000000=133.000000
;
#STOPS:92.000000=0.451000
;
#BGCHANGES:;
#KEYSOUNDS:;
#ATTACKS:;

//---------------dance-single - ----------------
#NOTES:
     dance-single:
     :
     Challenge:
     14:
     0.643860,0.870987,0.151496,0.814294,0.776420,476.000000,460.000000,16.000000,86.000000,0.000000,0.000000,0.643860,0.870987,0.151496,0.814294,0.776420,476.000000,460.000000,16.000000,86.000000,0.000000,0.000000:
// measure 0
0000
0000
0000
0000
,  // measure 1
0000
0000
0000
0000
,  // measure 2
0000
0000
0000
0000
,  // measure 3
0000
0000
0000
0000
,  // measure 4
2010
0000
0000
0100
0000
0000
0010
0000
0000
0100
0000
0000
3010
0000
0000
0000
,  // measure 5
0102
0000
0000
0010
0000
0000
0100
0000
0000
0010
0000
0000
0103
0000
0000
0000
,  // measure 6
2100
0000
0000
0010
0000
0000
0100
0000
0000
0010
0000
0000
3100
0000
0000
0000
,  // measure 7
1000
0010
0100
0001
1000
0010
0100
0001
1000
0001
1000
0001
0000
0000
0000
0000
,  // measure 8
0001
1000
0010
0000
1000
0100
0000
0100
0010
0000
0010
0001
0000
0001
0100
0000
,  // measure 9
0010
1000
0001
0000
0010
0100
0000
0100
1000
0000
1000
0001
0000
0001
0100
0000
,  // measure 10
0010
1000
0100
0000
1000
0100
0000
0100
0010
0000
0010
0001
0000
0001
0100
0000
,  // measure 11
0110
0000
0000
0000
0000
0000
1001
0000
0000
1000
0001
1000
0001
0000
0000
0000
0000
0000
1000
0000
0000
0100
0000
0000
,  // measure 12
0010
0001
0100
0000
0010
1000
0000
1000
0001
0000
0001
0010
0000
0010
0001
0000
,  // measure 13
0010
0100
1000
0000
0100
1000
0000
1000
0010
0000
0010
0100
0000
0100
0001
0000
,  // measure 14
1000
0001
0010
0000
0100
0010
0000
0010
0001
0000
0001
0100
0000
0100
0010
0000
,  // measure 15
1001
0000
0001
0100
0010
1000
0001
0100
0020
0000
0000
0000
1000
0000
0000
0000
,  // measure 16
0230
0302
0023
2030
3020
0230
0000
0320
,  // measure 17
0032
0000
0203
0000
2300
0000
3200
0000
0320
0000
1030
0001
1000
0100
1000
0000
,  // measure 18
0200
0320
0230
2300
3002
2003
0000
0200
,  // measure 19
0000
0000
3300
0000
,  // measure 20
0002
0023
0230
0320
0032
2003
0000
3020
,  // measure 21
0230
0000
2300
0000
3200
0000
0320
0000
2030
0000
3001
0010
0001
1000
0001
0000
,  // measure 22
0200
0302
0023
2030
3020
0230
0000
2000
,  // measure 23
3300
0000
0000
0000
1001
0000
0000
0000
0000
0000
0000
0000
0001
0000
0000
0010
,  // measure 24
0100
0000
1000
0000
0001
0010
0100
0010
0001
0000
1000
0000
0001
0001
0000
0001
,  // measure 25
0001
0000
0001
0000
0001
0001
0000
0001
1001
0000
0000
0000
0001
0000
0000
0100
,  // measure 26
0010
0000
1000
0000
0001
1000
0010
1000
0001
0000
1000
0000
1001
0000
1000
1010
,  // measure 27
0000
0101
0000
0000
0011
0000
0010
0010
0000
0000
0000
0000
1001
0000
0000
1000
,  // measure 28
0100
0000
1000
0000
0010
1000
0100
0010
0100
0000
1000
0000
0001
0000
0000
1000
,  // measure 29
0010
0000
0100
0000
0001
0010
0100
0010
0001
0000
1000
0000
0100
0100
0000
0100
,  // measure 30
0100
0000
0100
0000
0100
0100
0000
0100
1100
0000
0000
0000
0000
0000
1000
0100
,  // measure 31
0010
0001
1000
0100
0010
0100
1000
0010
0100
0000
0001
0000
2000
0000
0000
0010
,  // measure 32
0000
0000
0010
0000
0010
0000
0000
0010
0000
0000
3010
0100
0002
0000
0000
0100
,  // measure 33
0000
0000
0100
0000
1000
0000
0000
1000
0000
0000
1003
0001
0020
0000
0000
0100
,  // measure 34
0000
0000
0100
0000
0100
0000
0000
0100
0000
0000
0130
1000
0001
0000
0000
0001
,  // measure 35
0000
0000
0001
0000
0100
0010
0100
0010
0200
0000
0000
0000
0301
0000
0100
0000
,  // measure 36
0001
1000
0000
1000
0001
0000
0001
1000
0000
1000
0001
0000
0100
0010
0000
1000
,  // measure 37
0010
0000
0100
0001
0000
0010
0100
0000
0010
0001
0000
0010
0100
0000
0010
0001
,  // measure 38
0000
0100
0010
0000
1000
0001
0000
0010
0100
0000
1000
0010
0200
0000
0000
0000
,  // measure 39
0000
0000
0300
0001
1000
0001
2000
0000
0000
0000
0000
0000
3200
0000
0000
0000
0000
0000
0320
0000
0000
0032
0000
0000
,  // measure 40
0203
2300
3200
0320
0000
0230
0000
0302
,  // measure 41
0000
0000
2003
0000
0000
0000
3002
0000
2003
0000
3100
0010
0002
0000
0023
0000
,  // measure 42
0230
0320
0032
2003
0000
0002
0000
0000
,  // measure 43
3003
0000
0110
0000
1001
0000
2000
3020
,  // measure 44
0032
0023
0230
0320
0000
0230
0000
0302
,  // measure 45
0000
0000
0023
0000
0000
0000
2030
0000
3020
0000
0031
0010
0200
0000
0320
0000
,  // measure 46
0032
2003
3020
0230
0000
0302
0010
0000
,  // measure 47
1003
0000
0000
0000
0000
0000
0001
0000
0100
0000
0001
0000
0200
0000
0000
0000
0000
0000
0000
0000
0000
0000
0000
0000
0000
0000
0300
0000
0000
0000
0000
0000
0000
0000
0000
0000
0010
0000
0000
1000
0000
0000
0001
0000
0000
0000
0000
0000
,  // measure 48
0010
0001
0000
0001
0100
0000
0100
0010
0000
0010
1000
0000
1000
0001
1000
0000
,  // measure 49
0001
0100
0000
0100
0010
0000
0010
1000
0000
1000
0100
0000
0010
0001
0100
0000
,  // measure 50
0100
0010
0000
0010
1000
0000
1000
0001
0000
0001
0010
0000
0100
1000
0010
0000
,  // measure 51
0100
0001
0000
0001
0010
0000
0010
0100
0000
0100
1000
0000
0001
0100
0010
0100
,  // measure 52
0001
0100
0010
0100
0001
0100
0010
0100
0001
0100
0010
0100
0001
1000
0010
1000
,  // measure 53
0100
1000
0010
1000
0100
1000
0010
1000
0100
1000
0010
0100
0010
1000
0001
0010
,  // measure 54
0001
1000
0010
1000
0001
0010
0001
1000
0010
1000
0001
0010
0100
0010
0001
0100
,  // measure 55
0010
1000
0001
0010
0100
1000
0100
0001
0100
0010
0001
1000
0001
0000
0000
0000
;
