#VERSION:0.83;
#TITLE:Jetlag (Alternative);
#SUBTITLE:;
#ARTIST:UCast;
#TITLETRANSLIT:;
#SUBTITLETRANSLIT:;
#ARTISTTRANSLIT:;
#GENRE:;
#ORIGIN:;
#CREDIT:;
#BANNER:Jetlag.png;
#BACKGROUND:Jetlag-bg.png;
#PREVIEWVID:;
#JACKET:Jetlag-jacket.png;
#CDIMAGE:;
#DISCIMAGE:;
#LYRICSPATH:;
#CDTITLE:cdtitle.png;
#MUSIC:Jetlag.ogg;
#OFFSET:-0.023000;
#SAMPLESTART:41.760132;
#SAMPLELENGTH:13.913044;
#SELECTABLE:YES;
#BPMS:0.000=138.000;
#STOPS:;
#DELAYS:;
#WARPS:;
#TIMESIGNATURES:0.000=4=4;
#TICKCOUNTS:0.000=4;
#COMBOS:0.000=1;
#SPEEDS:0.000=1.000=0.000=0;
#SCROLLS:0.000=1.000;
#FAKES:;
#LABELS:0.000=Song Start;
#BGCHANGES:;
#KEYSOUNDS:;
#ATTACKS:
;

//---------------dance-single - ----------------
#NOTEDATA:;
#CHARTNAME:;
#STEPSTYPE:dance-single;
#DESCRIPTION:;
#CHARTSTYLE:;
#DIFFICULTY:Challenge;
#METER:15;
#RADARVALUES:0.641239,0.853271,0.127038,0.330299,0.825746,530.000000,515.000000,15.000000,39.000000,0.000000,0.000000,0.000000,0.000000,0.000000,0.641239,0.853271,0.127038,0.330299,0.825746,530.000000,515.000000,15.000000,39.000000,0.000000,0.000000,0.000000,0.000000,0.000000;
#CREDIT:;
#NOTES:
// measure 0
0000
0000
0000
0000
,  // measure 1
0000
0000
0000
0000
,  // measure 2
0000
0000
0000
0000
,  // measure 3
0000
0000
0000
0000
,  // measure 4
1000
0100
0000
0101
0000
0000
0000
0000
,  // measure 5
0000
0000
0000
0000
,  // measure 6
0001
0100
0000
1100
0000
0000
0000
0000
,  // measure 7
2002
0000
0000
3003
,  // measure 8
0201
0000
0000
0310
0000
0000
1000
0000
0200
0000
0000
0310
0000
0000
0100
0000
,  // measure 9
2000
0000
0000
3001
0000
0000
0100
0000
0010
1000
0000
0010
1000
0000
0001
0000
,  // measure 10
0020
0000
0000
0130
0000
0000
0010
0000
0002
0000
0000
0103
0000
0000
0010
0000
,  // measure 11
2000
0000
0000
3001
0000
0000
0100
0000
0001
0010
0000
0001
0010
0000
0001
0000
,  // measure 12
2000
0000
0000
3100
0000
0000
1000
0000
0020
0000
0000
0130
0000
0000
0001
0000
,  // measure 13
2000
0000
0000
3100
0000
0000
0010
0000
0001
0100
0000
0001
0100
0000
0001
0000
,  // measure 14
2000
0000
0000
3010
0000
0000
0100
0000
0020
0000
0000
1030
0000
0000
0100
0000
,  // measure 15
0020
0000
0000
0130
0000
0000
0010
0000
0001
1000
0000
0001
1000
0000
0001
0000
,  // measure 16
0100
0100
0010
1000
0001
0001
0010
1000
,  // measure 17
0010
0010
0100
1000
0010
0010
0001
0010
,  // measure 18
0100
0100
0010
1000
0001
0001
0010
1000
,  // measure 19
0010
0010
0100
1000
0100
0100
0001
0100
,  // measure 20
0010
0001
0000
0100
0001
0100
0000
0010
0100
0010
0000
1000
0010
1000
0000
0001
,  // measure 21
1000
0010
0000
0100
0001
0010
0000
0100
0010
0001
0000
0010
0100
1000
0000
0001
,  // measure 22
1000
0001
1000
0001
0100
0010
0100
0010
1000
0001
0100
0010
1000
0001
0100
0010
,  // measure 23
2000
0000
0000
0000
3001
1000
0001
1000
0010
0100
0010
0100
0110
0000
1001
0000
,  // measure 24
0110
0000
1000
0010
0000
1000
0100
0000
0010
0000
0100
1000
0000
1000
0010
0000
,  // measure 25
0100
0000
0001
0100
0000
0010
0100
0000
0001
0000
1000
0001
0000
0001
0010
0000
,  // measure 26
0100
0000
0010
0001
0000
0010
0100
0000
0010
0000
0001
1000
0000
1000
0010
0000
,  // measure 27
0100
0000
0001
0100
0000
0010
1000
0000
0100
0000
0010
0100
0000
0100
1000
0000
,  // measure 28
0001
0000
1000
0010
0000
0100
0010
0000
1000
0000
0001
0010
0000
0010
0100
0000
,  // measure 29
0010
0000
0001
0100
0000
0001
0010
0000
0100
0000
1000
0100
0000
0100
0010
0000
,  // measure 30
0100
0000
1000
0010
0000
0100
0010
0000
1000
0000
0001
1000
0000
1000
0010
0000
,  // measure 31
0100
0000
0010
1000
0000
0001
0100
0000
0001
0000
1000
0001
0000
0001
0010
0000
,  // measure 32
1001
0000
0010
0002
0000
0103
0001
0000
1001
0000
1000
0020
0000
0130
0010
0000
,  // measure 33
1001
0000
0100
0002
0000
0013
0001
0000
1001
0000
0001
0020
0000
0130
0010
0000
,  // measure 34
1100
0000
0100
0020
0000
0031
0010
0000
0011
0000
0001
0200
0000
0310
0100
0000
,  // measure 35
1001
0000
0001
0200
0000
0310
0100
0000
1010
0000
1000
0020
0000
0130
0010
0000
,  // measure 36
1000
0001
0000
0100
0010
1000
0000
0100
0010
0001
0000
0001
0010
0100
0000
0010
,  // measure 37
0001
0100
0000
0010
1000
0001
0000
0010
0100
1000
0000
0001
0100
0010
0000
0100
,  // measure 38
0010
1000
0010
1000
0010
1000
0010
1000
0001
0100
0001
0100
0001
0100
0001
0100
,  // measure 39
0002
0000
0000
0023
0000
0000
2030
0000
3020
0000
0000
0032
0000
0000
0203
0000
,  // measure 40
0310
1000
0000
0001
0000
0000
0100
0000
0010
1000
0000
0100
0000
0000
0010
0000
,  // measure 41
0001
0010
0000
0100
0000
0000
0010
0000
0001
1000
0000
0010
0000
0000
1000
0000
,  // measure 42
0100
1000
0000
0001
0000
0000
1000
0000
0001
0100
0000
0010
0000
0000
0100
0000
,  // measure 43
0001
0100
0000
0010
0000
0000
0100
0000
0001
1000
0000
0100
0000
0000
0010
0000
,  // measure 44
0100
1000
0000
0001
0000
0000
1000
0000
0001
0100
0000
0001
0000
0000
0100
0000
,  // measure 45
0010
1000
0000
0100
0000
0000
0010
0000
0100
1000
0000
0010
0000
0000
0100
0000
,  // measure 46
0001
1000
0000
0100
0000
0000
0010
0000
0100
1000
0000
0010
0000
0000
0100
0000
,  // measure 47
0001
1000
0000
0100
0000
0000
0010
0000
0100
1000
0000
0100
0000
0000
0010
0000
,  // measure 48
0200
0000
0000
1300
0000
0000
0010
0000
0200
0000
0000
0301
0000
0000
1000
0000
,  // measure 49
0002
0000
0000
0013
0000
0000
0001
0000
2000
0000
0000
3010
0000
0000
0100
0000
,  // measure 50
0002
0000
0000
0013
0000
0000
0100
0000
0020
0000
0000
0130
0000
0000
1000
0000
,  // measure 51
0020
0000
0000
0130
0000
0000
0010
0000
2000
0000
0000
3100
0000
0000
0010
0000
,  // measure 52
0100
0100
1000
0010
0100
0100
0001
0010
,  // measure 53
0100
0000
0100
0000
0010
0000
0001
0000
1000
0000
1000
0000
0000
0001
1000
0000
,  // measure 54
0010
0100
0000
0001
0100
0010
0000
0100
0001
1000
0000
0100
0010
0001
0000
0010
,  // measure 55
1000
0010
0001
0100
2000
0000
3001
0000
,  // measure 56
1000
0000
0001
0100
0000
0100
0010
0000
0100
0000
0001
0000
1000
0000
0100
0000
,  // measure 57
0010
0000
0100
1000
0000
1000
0010
0000
0100
0001
0100
0001
0100
0000
0001
0000
,  // measure 58
1000
0000
0001
0100
0000
0010
1000
0000
0100
0000
0010
0000
0100
0000
1000
0000
,  // measure 59
0001
0000
1000
0100
0000
0100
0010
0000
0001
0010
0001
0010
0001
0000
1000
0000
,  // measure 60
0010
0000
1000
0100
0000
0010
0100
0000
1000
0000
0010
0000
0100
0000
0001
0000
,  // measure 61
0010
0000
0100
0010
0000
0001
0100
0000
0010
1000
0010
1000
0010
0000
1000
0000
,  // measure 62
0100
0000
0010
0100
0000
0010
0001
0000
0100
0000
0010
0000
0100
0000
0001
0000
,  // measure 63
1000
0000
0001
0100
0000
0010
1000
0000
0100
0010
0100
0010
0100
0000
1000
0000
,  // measure 64
0002
0000
0000
0000
,  // measure 65
0003
0000
0000
0000
;
