#TITLE:INSOMNIA (Alternative);
#SUBTITLE:;
#ARTIST:ジャカルタファンクブラザーズ;
#TITLETRANSLIT:;
#SUBTITLETRANSLIT:;
#ARTISTTRANSLIT:JAKARTA FUNK BROTHERS;
#GENRE:;
#CREDIT:;
#BANNER:INSOMNIA.png;
#BACKGROUND:INSOMNIA-bg.png;
#LYRICSPATH:;
#CDTITLE:cdtitle.png;
#MUSIC:INSOMNIA.mp3;
#OFFSET:3.101000;
#SAMPLESTART:25.200001;
#SAMPLELENGTH:12.000000;
#LASTBEATHINT:6.828250;
#SELECTABLE:YES;
#BPMS:0.000000=195.000000
;
#STOPS:56.000000=0.150000,
56.500000=0.150000,
57.000000=0.150000,
57.500000=0.150000,
137.500000=0.305000,
183.000000=0.310000,
296.000000=0.920000
;
#BGCHANGES:;
#KEYSOUNDS:;
#ATTACKS:;

//---------------dance-single - ----------------
#NOTES:
     dance-single:
     :
     Challenge:
     17:
     0.823148,1.029559,0.257753,0.282697,0.432361,693.000000,662.000000,31.000000,34.000000,41.000000,0.000000,0.823148,1.029559,0.257753,0.282697,0.432361,693.000000,662.000000,31.000000,34.000000,41.000000,0.000000:
// measure 0
0000
0000
0000
0000
,  // measure 1
0000
0000
0000
0000
,  // measure 2
0000
0000
0000
0000
,  // measure 3
0000
0000
0000
0000
,  // measure 4
0000
0000
0000
0000
,  // measure 5
0000
0000
0000
0000
,  // measure 6
0000
0000
0000
0000
,  // measure 7
1001
0000
0001
0000
1000
0000
0010
0100
,  // measure 8
0001
0000
0010
0000
0000
0100
0000
0000
,  // measure 9
0010
0000
0001
0010
0100
0000
0010
0000
,  // measure 10
0001
0000
0000
0001
0000
0000
2000
0000
0000
0000
0000
0000
3100
0000
0010
0000
0100
0000
2000
0000
0000
0000
0000
0000
,  // measure 11
3040
0400
0000
0000
0000
0000
0000
0000
0000
0000
0000
0000
,  // measure 12
0000
0000
0000
0000
,  // measure 13
0000
0000
0000
0000
0000
0000
0000
0330
,  // measure 14
1001
MM1M
1001
M1MM
0001
0100
0101
0000
,  // measure 15
0001
1000
1100
0000
1000
1000
0100
0001
,  // measure 16
0100
0010
0001
1000
0010
0000
0100
0002
,  // measure 17
0000
0013
1000
0010
0100
0000
1000
0020
,  // measure 18
0000
0000
0130
0001
1000
0001
0011
0000
,  // measure 19
1000
0010
1010
0000
0100
0100
0010
0001
,  // measure 20
0010
1000
0100
0010
0002
0003
2000
3000
,  // measure 21
0110
0000
0100
0001
0010
0000
0110
0000
,  // measure 22
1100
0000
0100
0000
0020
0000
0000
0000
0030
0000
0100
1000
0001
0000
1000
0010
,  // measure 23
0100
0000
0010
1000
0001
0000
0010
0100
1000
0000
0010
0000
0100
0000
0001
0000
,  // measure 24
0010
0100
0010
0001
1000
0100
1000
0010
,  // measure 25
0100
0001
0010
0100
0010
0001
1000
1000
,  // measure 26
0010
0000
0010
0000
1000
0000
1000
0000
0000
0000
1000
0001
0100
0000
0100
0010
,  // measure 27
1000
0000
1000
0100
0010
0000
0100
1000
0001
0000
0100
0000
0010
0000
1000
0000
,  // measure 28
0100
0010
0100
1000
0001
0100
0001
0010
,  // measure 29
010M
100M
010M
001M
0001
0001
1000
1000
,  // measure 30
0010
0000
0010
0000
1000
0000
1000
0000
0000
0000
0001
1000
0010
0000
0010
0100
,  // measure 31
0001
0000
0001
1000
0100
0000
0100
1000
0001
0000
0100
0000
0010
0000
0100
0000
,  // measure 32
0001
1000
0100
0010
0100
1000
0001
0100
,  // measure 33
0001
1000
0100
0010
0100
1000
0100
0010
,  // measure 34
0001
1000
0001
1000
0001
1000
0001
0000
0110
0000
0010
0100
0001
0000
0001
1000
,  // measure 35
0100
0000
0100
1000
0010
0000
0100
0000
0001
0000
1000
0000
0100
0000
0001
0000
,  // measure 36
0100
0000
0010
0000
0100
1000
0100
0000
0010
0000
0001
0000
1000
0001
1000
0000
,  // measure 37
0010
0100
0001
0010
1000
0010
0001
0100
,  // measure 38
1000
0000
0100
0000
0102
0000
MMM0
0000
1003
0010
0100
0001
0020
0000
MM0M
0000
,  // measure 39
0130
1000
0100
0010
0002
0000
MMM0
0000
1003
0001
0100
0001
0020
0000
MM0M
0000
,  // measure 40
0130
0010
0001
1000
0100
0000
0000
0000
0011
0000
0000
0000
0100
0000
0000
0000
,  // measure 41
1010
0000
0000
0000
1000
0000
1000
0000
0001
0000
0001
0000
0100
0010
0100
0010
,  // measure 42
0200
0000
0300
0000
0001
0000
1000
0010
1000
0000
0010
0000
0100
0000
0001
1000
,  // measure 43
0001
0000
1000
0000
0100
0000
0010
0001
0010
0000
0001
0000
0100
0000
0010
0100
,  // measure 44
0010
0000
0100
0000
0001
0000
1000
0100
1000
0000
0100
0000
0010
0000
0001
1000
,  // measure 45
0001
0000
1000
0000
0010
0000
0100
0001
0100
0000
0010
0000
4000
0000
3000
0000
,  // measure 46
0001
0000
0100
0010
0100
0000
0010
0000
1000
0000
0100
0010
0100
0000
0010
0000
,  // measure 47
0001
0000
1000
0010
1000
0000
0010
0000
0100
0000
0001
1000
0001
0000
1000
0000
,  // measure 48
0100
0000
0010
0001
0010
0000
0001
0000
1001
0000
0000
0000
0110
0000
0000
0000
,  // measure 49
0020
0000
1030
0000
1100
0100
1100
0000
,  // measure 50
0001
0000
0010
0001
0100
0000
0010
0000
1000
0000
0100
0010
0001
0000
0010
0000
,  // measure 51
0001
0000
0100
0010
1000
0000
0100
0000
0010
0000
0100
1000
0001
0000
0010
0000
,  // measure 52
0100
0000
0010
0001
1000
0000
0010
0000
0100
0000
0001
0100
0010
0000
1000
0000
,  // measure 53
0100
0000
0010
0100
1000
0000
0001
0000
1000
0010
1000
0010
0200
0000
0000
0000
,  // measure 54
0301
0000
1000
0001
0010
0000
0100
0000
1000
0000
0100
0010
0001
0000
0010
0000
,  // measure 55
0001
0000
0100
0010
1000
0000
0100
0000
0010
0000
0100
1000
0001
0000
0100
0000
,  // measure 56
0010
0000
0100
0001
1000
0000
0100
0000
0010
0000
0100
1000
0001
0000
0100
0000
,  // measure 57
0020
0000
2030
0000
3200
0000
0310
0001
,  // measure 58
1002
0000
0000
0000
,  // measure 59
0203
0000
0000
0000
,  // measure 60
2300
0000
3020
0000
,  // measure 61
0000
0000
0031
0000
,  // measure 62
2001
0000
0000
0000
,  // measure 63
3200
0000
0000
0000
00M0
00M0
00M0
00M0
,  // measure 64
03M2
0000
0023
0000
,  // measure 65
0000
0000
1030
0000
,  // measure 66
1001
0000
1001
0000
1001
0000
1000
0001
,  // measure 67
1001
0000
0000
0000
1001
0000
0000
0000
0001
0000
1000
0000
0001
0000
1000
0001
,  // measure 68
1000
0000
1001
0000
1001
0000
1000
0001
,  // measure 69
1001
0000
0000
0000
1001
0000
0000
0000
0001
0000
1000
0000
0001
0000
1000
0001
,  // measure 70
1000
1000
0100
0100
0001
0001
0100
0100
,  // measure 71
0010
0010
0001
0001
0100
0100
1000
1000
,  // measure 72
0100
0010
0100
0010
1000
0001
1000
0001
,  // measure 73
0010
0000
0010
0000
0010
0000
0010
0000
0010
0001
0100
0010
1000
0001
0010
0100
,  // measure 74
2000
3000
0000
0000
0004
0003
0000
0400
0340
4030
3400
0300
1100
0000
0000
0000
,  // measure 75
2001
3010
1000
0100
0001
0100
1000
0010
,  // measure 76
0001
0010
1000
0100
1000
0100
0001
0100
,  // measure 77
0010
0001
0010
0001
0100
0000
0010
1000
0001
0000
0010
0000
0100
0000
0010
0001
,  // measure 78
0100
0000
0010
0000
1000
0000
0010
0100
0001
0000
1000
0000
0001
0000
0010
0000
,  // measure 79
0100
1000
0001
0010
1000
0010
0001
0100
,  // measure 80
1000
0100
0010
1000
0010
0100
0001
0010
,  // measure 81
0100
0000
0010
0000
0002
0000
0000
0000
1003
0000
0100
0000
0010
0100
0010
0001
,  // measure 82
1000
0000
0001
0000
1000
0000
0100
0000
0001
0000
0100
0000
1000
0010
1000
0010
,  // measure 83
0100
0001
0100
0001
1000
0000
0100
0000
0001
0000
0100
0000
0010
0000
0001
0000
,  // measure 84
0010
1000
0010
0001
0010
0100
1000
0001
,  // measure 85
0100
1000
0100
0010
0001
0000
1000
0001
0100
0000
0010
0000
1000
0000
0100
0000
,  // measure 86
0010
0001
0100
0010
1000
0000
0001
0000
1000
0001
0100
0001
0010
0000
0100
0000
,  // measure 87
1000
0001
1000
1000
0001
0100
0010
0010
,  // measure 88
0100
0001
0010
0010
0100
0010
0001
0001
,  // measure 89
1000
0000
0001
0000
0200
0000
0000
0000
0310
0000
1000
0000
0001
0100
0001
0100
,  // measure 90
0010
1000
0010
1000
0100
0000
0010
0000
0001
0000
0010
0000
0100
0010
0001
0100
,  // measure 91
0010
1000
0001
0010
0200
0000
M0MM
0000
0310
0001
0100
0010
2000
0000
0MMM
0000
,  // measure 92
3001
1000
0100
0010
0200
0000
M0MM
0000
0310
0001
0100
0010
2000
0000
0MMM
0000
,  // measure 93
3001
0100
0010
1000
0001
0000
0010
0000
0001
0000
1000
0000
0100
0000
1000
0000
,  // measure 94
0001
0000
0100
0000
0010
0000
0010
0000
0100
0000
0100
0000
0001
1000
0001
1000
,  // measure 95
0M2M
0030
0000
0000
;
